Белль / Belle (2014) BDRip 720p | ATV | L1,P | iTunes

 
Автор Сообщение

sergej644 ®

Пол:

Стаж: 4 года 11 месяцев

Сообщений: 6042

Откуда: Soviet Union



Награды: Нет

Торрент-статистика

Создавать темы 10-Фев-2015 10:04

[Цитировать]

Белль / Belle (2014) BDRip-AVC 720p | ATV | L1,P | iTunes
- Год выпуска: 2014
Производство: Великобритания / © 2014 Twentieth Century Fox Film Corporation, The British Film Institute and TSG Entertainment Finance LLC. All rights reserved.
Жанр: драма, мелодрама, реальные события
Режиссер: Амма Асанте
В ролях: Гугу Мбата-Роу, Том Уилкинсон, Миранда Ричардсон, Пенелопа Уилтон, Мэттью Гуд, Эмили Уотсон, Лорен Жюльен-Бокс, Наташа Уильямс, Алан МакКенна, Кара Дженкинс
Описание:
Сюжет фильма основан на жизни Дайдо Элизабет Белль (18-й век). Она была внебрачной дочерью капитана королевского флота Джона Линдси, а ее матерью была чернокожая женщина по имени Мария Белль.

Продолжительность: 01:43:50
Перевод: Профессиональный (многоголосый закадровый) [iTunes Russia], Любительский (одноголосый закадровый) [Lord32x]
Cубтитры: Отсутствуют
Качество: BDRip [720p]
Видео: MPEG-4 AVC/H.264, 1280x532 (2.40:1), 4 200 kbps, 23.976 fps
Аудио 1: Русский/Профессиональный (многоголосый закадровый), AAC / 2.0 / 132 Kbps / 48.0 KHz
Аудио 2: Русский/Профессиональный (многоголосый закадровый), AC3 / 5.1 / 384 Kbps / 48.0 KHz
Аудио 3: Русский/Любительский (одноголосый закадровый), AAC / 2.0 / 132 Kbps / 48.0 KHz
Аудио 4: Русский/Любительский (одноголосый закадровый), AC3 / 5.1 / 384 Kbps / 48.0 KHz
Аудио 5: Английский/Оригинальный, AAC / 2.0 / 132 Kbps / 48.0 KHz
Аудио 6: Английский/Оригинальный, AC3 / 5.1 / 640 Kbps / 48.0 KHz

iTunes Meta Tags

Sort Name: Belle
XID: Apple:vendor_id:2014-682934
Content ID: 897739548
Copyright: © 2014 Twentieth Century Fox Film Corporation, The British Film Institute and TSG Entertainment Finance LLC. All rights reserved.
ScreenWriters: Мисан Сагай
Producers: Дэмиэн Джонс, Стив Кристиан, Хилари Дэвис
Director: Амма Асанте
Cast: Gugu Mbatha-Raw (Dido Elizabeth Belle), Tom Wilkinson (Lord Mansfield), Miranda Richardson (Lady Ashford), Sarah Gadon (Elizabeth), Sam Reid (John Davinier), Matthew Goode (Captain Sir John Lindsay), Emily Watson (Lady Mansfield), Tom Felton (James Ashford), Penelope Wilton (Lady Mary Murray), James Norton (Oliver Ashford)
Rating: 12
Long Deion: Сюжет фильма основан на жизни Дайдо Элизабет Белль. Она была внебрачной дочерью капитана королевского флота Джона Линдси, а ее матерью была черная женщина по имени Мария Белль.
Deion: Сюжет фильма основан на жизни Дайдо Элизабет Белль. Она была внебрачной дочерью капитана королевского флота Джона Линдси, а ее матерью была черная женщина по имени Мария Белль.
Release Date: 2014-06-13T07:00:00Z
Genre: Romance
Artist: Amma Asante
Name: Белль

MediaInfo

General
Complete name : I:modoutBelle.2013.BDRip.720p.PL1.m4v
Format : MPEG-4
Codec ID : M4V
File size : 4.37 GiB
Duration : 1h 43mn
Overall bit rate mode : Variable
Overall bit rate : 6 020 Kbps
Movie name : Белль
Performer : Amma Asante
Genre : Romance
ContentType : Short Film
Deion : Сюжет фильма основан на жизни Дайдо Элизабет Белль. Она была внебрачной дочерью капитана королевского флота Джона Линдси, а ее матерью была черная женщина по имени Мария Белль.
Recorded date : UTC 2014-06-13 07:00:00
Encoded date : UTC 2014-10-04 09:41:54
Tagged date : UTC 2014-10-04 09:50:43
Copyright : © 2014 Twentieth Century Fox Film Corporation, The British Film Institute and TSG Entertainment Finance LLC. All rights reserved.
Cover : Yes
ContentRating : uk-movie|12|300|
Title/Sort : Belle
LongDeion : Сюжет фильма основан на жизни Дайдо Элизабет Белль. Она была внебрачной дочерью капитана королевского флота Джона Линдси, а ее матерью была черная женщина по имени Мария Белль.
HDVideo : Yes
AppleStoreCatalogID : 897739548
Vendor : Apple:vendor_id:2014-682934
Video
ID : 1
Format : AVC
Format/Info : Advanced Video Codec
Format profile : High@L4.1
Format settings, CABAC : Yes
Format settings, ReFrames : 9 frames
Codec ID : avc1
Codec ID/Info : Advanced Video Coding
Duration : 1h 43mn
Bit rate : 4 191 Kbps
Maximum bit rate : 14.3 Mbps
Width : 1 280 pixels
Height : 532 pixels
Display aspect ratio : 2.40:1
Frame rate mode : Constant
Frame rate : 23.976 fps
Color space : YUV
Chroma subsampling : 4:2:0
Bit depth : 8 bits
Scan type : Progressive
Bits/(Pixel*Frame) : 0.257
Stream size : 3.04 GiB (70%)
Language : English
Encoded date : UTC 2014-10-04 09:41:54
Tagged date : UTC 2014-10-04 09:42:48
Color primaries : BT.709
Transfer characteristics : BT.709
Matrix coefficients : BT.709
Audio #1
ID : 2
Format : AAC
Format/Info : Advanced Audio Codec
Format profile : LC
Codec ID : 40
Duration : 1h 43mn
Bit rate mode : Variable
Bit rate : 132 Kbps
Maximum bit rate : 189 Kbps
Channel(s) : 2 channels
Channel positions : Front: L R
Sampling rate : 48.0 KHz
Compression mode : Lossy
Stream size : 96.8 MiB (2%)
Title : AAC MVO [iTunes]
Language : Russian
Encoded date : UTC 2014-10-04 09:42:16
Tagged date : UTC 2014-10-04 09:42:48
Audio #2
ID : 3
Format : AC-3
Format/Info : Audio Coding 3
Mode extension : CM (complete main)
Format settings, Endianness : Big
Codec ID : ac-3
Duration : 1h 43mn
Bit rate mode : Constant
Bit rate : 384 Kbps
Channel(s) : 6 channels
Channel positions : Front: L C R, Side: L R, LFE
Sampling rate : 48.0 KHz
Bit depth : 16 bits
Compression mode : Lossy
Stream size : 285 MiB (6%)
Title : AC3 MVO [iTunes]
Language : Russian
Encoded date : UTC 2014-10-04 09:42:20
Tagged date : UTC 2014-10-04 09:42:48
Audio #3
ID : 4
Format : AAC
Format/Info : Advanced Audio Codec
Format profile : LC
Codec ID : 40
Duration : 1h 43mn
Bit rate mode : Variable
Bit rate : 136 Kbps
Maximum bit rate : 177 Kbps
Channel(s) : 2 channels
Channel positions : Front: L R
Sampling rate : 48.0 KHz
Compression mode : Lossy
Stream size : 101 MiB (2%)
Title : AAC VO [Lord32x]
Language : Russian
Encoded date : UTC 2014-10-04 09:42:25
Tagged date : UTC 2014-10-04 09:42:48
Audio #4
ID : 5
Format : AC-3
Format/Info : Audio Coding 3
Mode extension : CM (complete main)
Format settings, Endianness : Big
Codec ID : ac-3
Duration : 1h 43mn
Bit rate mode : Constant
Bit rate : 384 Kbps
Channel(s) : 6 channels
Channel positions : Front: L C R, Side: L R, LFE
Sampling rate : 48.0 KHz
Bit depth : 16 bits
Compression mode : Lossy
Stream size : 285 MiB (6%)
Title : AC3 VO [Lord32x]
Language : Russian
Encoded date : UTC 2014-10-04 09:42:32
Tagged date : UTC 2014-10-04 09:42:48
Audio #5
ID : 6
Format : AAC
Format/Info : Advanced Audio Codec
Format profile : LC
Codec ID : 40
Duration : 1h 43mn
Bit rate mode : Variable
Bit rate : 132 Kbps
Maximum bit rate : 190 Kbps
Channel(s) : 2 channels
Channel positions : Front: L R
Sampling rate : 48.0 KHz
Compression mode : Lossy
Stream size : 97.4 MiB (2%)
Title : AAC original
Language : English
Encoded date : UTC 2014-10-04 09:42:36
Tagged date : UTC 2014-10-04 09:42:48
Audio #6
ID : 7
Format : AC-3
Format/Info : Audio Coding 3
Mode extension : CM (complete main)
Format settings, Endianness : Big
Codec ID : ac-3
Duration : 1h 43mn
Bit rate mode : Constant
Bit rate : 640 Kbps
Channel(s) : 6 channels
Channel positions : Front: L C R, Side: L R, LFE
Sampling rate : 48.0 KHz
Bit depth : 16 bits
Compression mode : Lossy
Stream size : 475 MiB (11%)
Title : AC3 original
Language : English
Encoded date : UTC 2014-10-04 09:42:43
Tagged date : UTC 2014-10-04 09:42:48

x264 лог

x264 [info]: frame I:1191 Avg QP:14.34 size:174741
x264 [info]: frame P:30513 Avg QP:18.01 size: 55738
x264 [info]: frame B:117673 Avg QP:19.60 size: 11517
x264 [info]: consecutive B-frames: 1.8% 1.1% 11.7% 9.7% 11.7% 49.5% 11.6% 0.7% 1.4% 0.5% 0.2% 0.0% 0.0% 0.0% 0.0%
x264 [info]: mb I I16..4: 34.5% 38.0% 27.5%
x264 [info]: mb P I16..4: 0.9% 5.4% 2.2% P16..4: 23.0% 34.0% 20.3% 9.5% 2.6% skip: 2.0%
x264 [info]: mb B I16..4: 0.0% 0.5% 0.2% B16..8: 34.0% 17.7% 3.4% direct: 7.4% skip:36.7% L0:37.9% L1:46.1% BI:16.0%
x264 [info]: 8x8 transform intra:58.1% inter:33.7%
x264 [info]: coded y,uvDC,uvAC intra: 93.7% 64.3% 44.9% inter: 27.9% 9.8% 5.4%
x264 [info]: i16 v,h,dc,p: 4% 2% 41% 52%
x264 [info]: i8 v,h,dc,ddl,ddr,vr,hd,vl,hu: 15% 9% 14% 8% 11% 11% 10% 11% 12%
x264 [info]: i4 v,h,dc,ddl,ddr,vr,hd,vl,hu: 33% 7% 8% 7% 9% 10% 9% 8% 9%
x264 [info]: i8c dc,h,v,p: 34% 31% 21% 13%
x264 [info]: Weighted P-Frames: Y:4.1% UV:1.7%
x264 [info]: ref P L0: 55.5% 9.6% 13.8% 6.6% 4.7% 3.6% 2.8% 1.7% 1.5% 0.1% 0.0%
x264 [info]: ref B L0: 90.0% 4.8% 2.2% 1.0% 0.7% 0.6% 0.5% 0.2%
x264 [info]: ref B L1: 95.7% 4.3%
x264 [info]: kb/s:4191.30

Screenshots

[Профиль] [ЛС]
Показать сообщения:    

Текущее время: Сегодня 20:06

Часовой пояс: GMT



Вы не можете начинать темы
Вы не можете отвечать на сообщения
Вы не можете редактировать свои сообщения
Вы не можете удалять свои сообщения
Вы не можете голосовать в опросах
Вы не можете прикреплять файлы к сообщениям
Вы не можете скачивать файлы