Белль / Belle (2013) BDRip [1080p] [VO]

 
Автор Сообщение

sergej644 ®

Пол:

Стаж: 4 года 11 месяцев

Сообщений: 6043

Откуда: Soviet Union



Награды: Нет

Торрент-статистика

Создавать темы 14-Авг-2014 22:54

[Цитировать]

-Белль / Belle (2013) BDRip- Год выпуска: 2013
Производство: Великобритания / British Film Institute (BFI)
Жанр: Драма
Режиссер: Амма Асанте
Продюсер: Дэмиэн Джонс, Стив Кристиан, Хилари Дэвис
Актеры: Гугу Мбата-Роу, Том Уилкинсон, Миранда Ричардсон, Пенелопа Уилтон, Мэттью Гуд, Эмили Уотсон, Лорен Жюльен-Бокс, Наташа Уильямс, Алан МакКенна, Кара Дженкинс
Описание фильма:
Сюжет фильма основан на жизни Дайдо Элизабет Белль. Она была внебрачной дочерью капитана королевского флота Джона Линдси, а ее матерью была чернокожая женщина по имени Мария Белль.
Перевод: Одноголосый закадровый, любительский (Lord32x)
Субтитры: Вшитые отключаемые
Язык субтитров: Русский, Английский

Дата мировой премьеры: 8 сентября 2013
Дата выхода DVD релиза: 9 октября 2014, «Двадцатый Век Фокс СНГ»
Продолжительность: 01:43:50
Качество видео: BDRip
Видеокодек: MPEG-4 AVC/H.264
Битрейт видео: ~9415 Kbps
Размер кадра: 1920 X 804
Аудио 1: Русский, AC3 5.1, 384 kbps, 48 kHz
Аудио 2: Английский, DTS 5.1, 1509 kbps, 48 kHz
Сэмпл: Скачать

MediaInfo:

Общее
Уникальный идентификатор : 245648133697859340532667034304325846361 (0xB8CE1C11D5FF541F993C4DD015A78559)
Полное имя : D:\Films\Belle.2013.BDRip.1080p.mkv
Формат : Matroska
Версия формата : Version 2
Размер файла : 8,20 Гбайт
Продолжительность : 1 ч. 43 м.
Общий поток : 11,3 Мбит/сек
Дата кодирования : UTC 2014-08-14 17:07:53
Программа кодирования : mkvmerge v5.2.0 ('I can't explain') built on Dec 18 2011 18:12:03
Библиотека кодирования : libebml v1.2.3 + libmatroska v1.3.0
Видео
Идентификатор : 1
Формат : AVC
Формат/Информация : Advanced Video Codec
Профиль формата : [url=mailto:High@L4.1]High@L4.1[/url]
Параметр CABAC формата : Да
Параметр ReFrames формата : 5 кадров
Идентификатор кодека : V_MPEG4/ISO/AVC
Продолжительность : 1 ч. 43 м.
Битрейт : 9415 Кбит/сек
Ширина : 1920 пикселей
Высота : 804 пикселя
Соотношение сторон : 2,40:1
Режим частоты кадров : Постоянный
Частота кадров : 23,976 кадра/сек
Цветовое пространство : YUV
Субдискретизация насыщенности : 4:2:0
Битовая глубина : 8 бит
Тип развёртки : Прогрессивная
Бит/(Пиксели*Кадры) : 0.254
Размер потока : 6,66 Гбайт (81%)
Библиотека кодирования : x264 core 142 r2431 ac76440
Настройки программы : cabac=1 / ref=5 / deblock=1:-3:-3 / analyse=0x3:0x113 / me=umh / subme=10 / psy=1 / psy_rd=1.00:0.05 / mixed_ref=1 / me_range=32 / chroma_me=1 / trellis=2 / 8x8dct=1 / cqm=0 / deadzone=21,11 / fast_pskip=0 / chroma_qp_offset=-2 / threads=18 / lookahead_threads=1 / sliced_threads=0 / nr=0 / decimate=1 / interlaced=0 / bluray_compat=0 / constrained_intra=0 / bframes=5 / b_pyramid=2 / b_adapt=2 / b_bias=0 / direct=3 / weightb=1 / open_gop=0 / weightp=2 / keyint=250 / keyint_min=23 / scenecut=40 / intra_refresh=0 / rc=2pass / mbtree=0 / bitrate=9415 / ratetol=1.0 / qcomp=0.70 / qpmin=0 / qpmax=69 / qpstep=4 / cplxblur=20.0 / qblur=0.5 / ip_ratio=1.40 / pb_ratio=1.30 / aq=2:0.90
Язык : English
Default : Да
Forced : Нет
Аудио #1
Идентификатор : 2
Формат : AC-3
Формат/Информация : Audio Coding 3
Расширение режима : CM (complete main)
Параметр Endianness формата : Big
Идентификатор кодека : A_AC3
Продолжительность : 1 ч. 43 м.
Вид битрейта : Постоянный
Битрейт : 384 Кбит/сек
Каналы : 6 каналов
Расположение каналов : Front: L C R, Side: L R, LFE
Частота : 48,0 КГц
Битовая глубина : 16 бит
Метод сжатия : С потерями
Размер потока : 285 Мбайт (3%)
Заголовок : VO, Lord32x
Язык : Russian
Default : Да
Forced : Нет
Аудио #2
Идентификатор : 3
Формат : DTS
Формат/Информация : Digital Theater Systems
Режим : 16
Параметр Endianness формата : Big
Идентификатор кодека : A_DTS
Продолжительность : 1 ч. 43 м.
Вид битрейта : Постоянный
Битрейт : 1509 Кбит/сек
Каналы : 6 каналов
Расположение каналов : Front: L C R, Side: L R, LFE
Частота : 48,0 КГц
Битовая глубина : 24 бит
Метод сжатия : С потерями
Размер потока : 1,09 Гбайт (13%)
Язык : English
Default : Нет
Forced : Нет
Текст #1
Идентификатор : 4
Формат : UTF-8
Идентификатор кодека : S_TEXT/UTF8
Идентификатор кодека/Информация : UTF-8 Plain Text
Заголовок : Notabenoid
Язык : Russian
Default : Нет
Forced : Нет
Текст #2
Идентификатор : 5
Формат : UTF-8
Идентификатор кодека : S_TEXT/UTF8
Идентификатор кодека/Информация : UTF-8 Plain Text
Язык : English
Default : Нет
Forced : Нет
Текст #3
Идентификатор : 6
Формат : UTF-8
Идентификатор кодека : S_TEXT/UTF8
Идентификатор кодека/Информация : UTF-8 Plain Text
Заголовок : SDH
Язык : English
Default : Нет
Forced : Нет
Меню
00:00:00.000 : en:00:00:00.000
00:03:05.936 : en:00:03:05.936
00:06:12.372 : en:00:06:12.372
00:09:26.399 : en:00:09:26.399
00:11:32.942 : en:00:11:32.942
00:13:39.360 : en:00:13:39.360
00:15:51.367 : en:00:15:51.367
00:20:29.145 : en:00:20:29.145
00:23:45.633 : en:00:23:45.633
00:27:29.273 : en:00:27:29.273
00:29:37.025 : en:00:29:37.025
00:32:49.009 : en:00:32:49.009
00:34:40.578 : en:00:34:40.578
00:36:58.216 : en:00:36:58.216
00:39:22.443 : en:00:39:22.443
00:41:31.280 : en:00:41:31.280
00:44:38.759 : en:00:44:38.759
00:47:47.698 : en:00:47:47.698
00:49:29.216 : en:00:49:29.216
00:52:58.759 : en:00:52:58.759
00:56:23.046 : en:00:56:23.046
01:00:39.302 : en:01:00:39.302
01:03:51.036 : en:01:03:51.036
01:08:01.286 : en:01:08:01.286
01:10:44.824 : en:01:10:44.824
01:14:45.189 : en:01:14:45.189
01:19:24.093 : en:01:19:24.093
01:23:06.690 : en:01:23:06.690
01:26:01.323 : en:01:26:01.323
01:29:12.264 : en:01:29:12.264
01:35:24.886 : en:01:35:24.886
01:37:57.080 : en:01:37:57.080
-Скриншоты:
-Время раздачи: С 8:00 до 22:00 до 5 скачавших
[Профиль] [ЛС]
Показать сообщения:    

Текущее время: Сегодня 08:07

Часовой пояс: GMT



Вы не можете начинать темы
Вы не можете отвечать на сообщения
Вы не можете редактировать свои сообщения
Вы не можете удалять свои сообщения
Вы не можете голосовать в опросах
Вы не можете прикреплять файлы к сообщениям
Вы не можете скачивать файлы