Белая опасность / Die Jahrhundertlawine (Йорг Людорф / Jörg Lühdorff) [2008, Германия, Франция, Австрия, Бельгия, триллер, драма, SATRip] MVO (ТВ XXI) + Original Ger

 
Автор Сообщение

TorrentFilm ®

Пол:

Стаж: 2 года

Сообщений: 7741



Награды: Нет

Торрент-статистика

Создавать темы 29-Авг-2015 00:10

[Цитировать]

Белая опасность / Die Jahrhundertlawine
Страна: Германия, Франция, Австрия, Бельгия
Жанр: триллер, драма
Год выпуска: 2008
Продолжительность: 01:30:00
Перевод: Профессиональный (многоголосый закадровый) ТВ XXI
Cубтитры: нет
Оригинальная аудиодорожка: немецкий
Режиссер: Йорг Людорф / Jörg Lühdorff
В ролях: Дезире Носбуш
Венсан Перес
Аладин Райбел
Жак Списсер
Кароли Заонеро
Йоэль Эйзенблеттер
Ева Хаберманн
Михаэль Бранднер
Эва-Катрин Герман
Кристина Кляйн
Описание: Марк впервые возвращается в свой родной альпийский город Фент, который покинул после смерти брата девять лет назад. В городке осталась и его девушка Анна. После встречи с Марком Анна находится в смятении: она так и не сказала ему, что маленький мальчик Нико на самом деле его сын. Тем временем Фент готовится к открытию горнолыжного сезона, но по мере приближения радостного события усиливается метель…
Сэмпл: http://multi-up.com/1063699
Качество видео: SATRip
Формат видео: AVI
Видео: MPEG4, XviD, 704x384 (16:9), 25.000 fps, 1 914 Kbps (0.283 bit/pixel)
Аудио: MP3, 48.0 KHz, 2 ch, 128 Kbps, CBR - heccrbq
Аудио 2: MP3, 48.0 KHz, 2 ch, 128 Kbps, CBR - немецкий

MediaInfo

Общее
Полное имя : K:\Белая опасность.avi
Формат : AVI
Формат/Информация : Audio Video Interleave
Размер файла : 1,37 Гбайт
Продолжительность : 1 ч. 30 м.
Общий поток : 2185 Кбит/сек
Название фильма : Белая опасность / Die Jahrhundertlawine (2008)
Программа кодирования : VirtualDubMod 1.5.10.2 (build 2540/release)
Библиотека кодирования : VirtualDubMod build 2540/release
Авторское право : miha2154
Видео
Идентификатор : 0
Формат : MPEG-4 Visual
Профиль формата : Advanced Simple@L5
Параметр BVOP формата : 1
Параметр QPel формата : Нет
Параметр GMC формата : Без точки перехода
Параметр матрицы формата : Выборочная
Идентификатор кодека : XVID
Идентификатор кодека/Подсказка : XviD
Продолжительность : 1 ч. 30 м.
Битрейт : 1914 Кбит/сек
Ширина : 704 пикселя
Высота : 384 пикселя
Соотношение сторон : 1,85:1
Частота кадров : 25,000 кадров/сек
Цветовое пространство : YUV
Субдискретизация насыщенности : 4:2:0
Битовая глубина : 8 бит
Тип развёртки : Прогрессивная
Метод сжатия : С потерями
Бит/(Пиксели*Кадры) : 0.283
Размер потока : 1,20 Гбайт (88%)
Библиотека кодирования : XviD 65
Аудио #1
Идентификатор : 1
Формат : MPEG Audio
Версия формата : Version 1
Профиль формата : Layer 3
Режим : Joint stereo
Расширение режима : MS Stereo
Идентификатор кодека : 55
Идентификатор кодека/Подсказка : MP3
Продолжительность : 1 ч. 29 м.
Вид битрейта : Постоянный
Битрейт : 128 Кбит/сек
Каналы : 2 канала
Частота : 48,0 КГц
Метод сжатия : С потерями
Размер потока : 82,4 Мбайт (6%)
Выравнивание : Соединение по промежуткам
Продолжительность промежутка : 40 мс. (1,00 видеокадр)
Время предзагрузки промежутка : 504 мс.
Заголовок : Профессиональный (многоголосый закадровый) XXI
Аудио #2
Идентификатор : 2
Формат : MPEG Audio
Версия формата : Version 1
Профиль формата : Layer 3
Режим : Joint stereo
Расширение режима : MS Stereo
Идентификатор кодека : 55
Идентификатор кодека/Подсказка : MP3
Продолжительность : 1 ч. 29 м.
Вид битрейта : Постоянный
Битрейт : 128 Кбит/сек
Каналы : 2 канала
Частота : 48,0 КГц
Метод сжатия : С потерями
Размер потока : 82,4 Мбайт (6%)
Выравнивание : Соединение по промежуткам
Продолжительность промежутка : 40 мс. (1,00 видеокадр)
Время предзагрузки промежутка : 504 мс.
Заголовок : Немецкий

Скриншоты


[Профиль] [ЛС]

Создавать темы 12-Июн-2016 08:50 (спустя 9 месяцев 14 дней)

Топик был перенесен из форума Фильмы 2011 года в форум Фильмы 2006-2008 года
Russian Mafia
 
Показать сообщения:    

Текущее время: Сегодня 12:51

Часовой пояс: GMT



Вы не можете начинать темы
Вы не можете отвечать на сообщения
Вы не можете редактировать свои сообщения
Вы не можете удалять свои сообщения
Вы не можете голосовать в опросах
Вы не можете прикреплять файлы к сообщениям
Вы не можете скачивать файлы