Белая белая ночь (Рамиль Салахутдинов) [2014, Россия , драма, криминал, WEB-DLRip]

 
Автор Сообщение

AleksSin ®

Пол:

Стаж: 6 лет

Сообщений: 218



Награды: 4 (Подробнее)

Mega Seeder 4 (Количество: 1) Mega Seeder 3 (Количество: 1) Mega Seeder 2 (Количество: 1)
Торрент-статистика

Создавать темы 26-Апр-2015 19:49

[Цитировать]

Белая белая ночь
Страна: Россия
Жанр: драма, криминал
Год выпуска: 2014
Продолжительность: 02:02:15
Перевод: Не требуется
Cубтитры: нет
Режиссер: Рамиль Салахутдинов
В ролях: Ирина Обрезкова, Артем Цыпин, Сергей Барковский, Оксана Базилевич, Алла Еминцева, Дмитрий Гульнев, Петр Касатьев, Владимир Марьянов, Светлана Обидина, Юрий Орлов
Описание: Молодой парень приезжает в Петербург на концерт и пропадает. На его поиски из Москвы отправляется частный детектив Игорь. В ходе расследования он встречается с разными людьми, перед ним возникает современная гнетущая атмосфера города, в котором он сам жил много лет назад. В результате Игорь узнает, что пропавший парень случайно оказался втянутым в криминальную историю, связанную с современной застройкой исторического центра Петербурга. Он находит парня в больнице избитым, в состоянии комы и обнаруживает, что избившие его люди по-прежнему охотятся на него. Подвергая себя серьезной опасности, Игорь берет парня под свою защиту, и это дает ему почувствовать свою востребованность...

Качество видео: WEB-DLRip (Исх. WEB-DL 720p)
Формат видео: AVI
Видео кодек: XviD
Аудио кодек: МР3
Видео: 624x336 (1.86:1), 24 fps, XviD build 73 ~723 kbps avg, 0.14 bit/pixel
Аудио: 48 kHz, MPEG Layer 3, 2 ch, ~128.00 kbps avg

MediaInfo

Общее
Полное имя : S:ФильмыБелая белая ночь. 2014. WEB-DLRip (AleksSin).avi
Формат : AVI
Формат/Информация : Audio Video Interleave
Размер файла : 752 Мбайт
Продолжительность : 2 ч. 2 м.
Общий поток : 860 Кбит/сек
Программа кодирования : VirtualDubMod 1.5.10.3 | www.virtualdub-fr.org || (build 2550/release)
Библиотека кодирования : VirtualDubMod build 2550/release
Видео
Идентификатор : 0
Формат : MPEG-4 Visual
Профиль формата : Advanced Simple@L5
Параметр BVOP формата : 1
Параметр QPel формата : Нет
Параметр GMC формата : Без точки перехода
Параметр матрицы формата : Выборочная
Идентификатор кодека : XVID
Идентификатор кодека/Подсказка : XviD
Продолжительность : 2 ч. 2 м.
Битрейт : 723 Кбит/сек
Ширина : 624 пикс.
Высота : 336 пикс.
Соотношение сторон : 1,857
Частота кадров : 24,000 кадр/сек
Цветовое пространство : YUV
Подвыборка цветности : 4:2:0
Битовая глубина : 8 бит
Тип развёртки : Прогрессивная
Метод сжатия : С потерями
Бит/(Пиксели*Кадры) : 0.144
Размер потока : 632 Мбайт (84%)
Библиотека кодирования : XviD 73
Аудио
Идентификатор : 1
Формат : MPEG Audio
Версия формата : Version 1
Профиль формата : Layer 3
Идентификатор кодека : 55
Идентификатор кодека/Подсказка : MP3
Продолжительность : 2 ч. 2 м.
Вид битрейта : Постоянный
Битрейт : 128 Кбит/сек
Каналы : 2 канала
Частота : 48,0 КГц
Метод сжатия : С потерями
Размер потока : 112 Мбайт (15%)
Выравнивание : Соединение по промежуткам
Продолжительность промежутка : 42 мс. (1,00 видеокадр)
Время предзагрузки промежутка : 504 ms
Библиотека кодирования : LAME3.99r
Настройки программы : -m s -V 4 -q 2 -lowpass 17 -b 128

Скриншоты

[Профиль] [ЛС]
Показать сообщения:    

Текущее время: Сегодня 02:46

Часовой пояс: GMT



Вы не можете начинать темы
Вы не можете отвечать на сообщения
Вы не можете редактировать свои сообщения
Вы не можете удалять свои сообщения
Вы не можете голосовать в опросах
Вы не можете прикреплять файлы к сообщениям
Вы не можете скачивать файлы