Бей первым, Фредди! / Sla forst, Frede + Расслабься, Фредди! / Slap af, Frede! (Эрик Баллинг) [1965, 1966 г., комедия, DVDRip] [DUB] + [MVO]

 
Автор Сообщение

Bathory ®

Пол:

Стаж: 8 месяцев 29 дней

Сообщений: 169



Награды: 3 (Подробнее)

За внесенный вклад в развитие сайта (Количество: 1) Girls (Количество: 1) Друг (Количество: 1)
Торрент-статистика

Создавать темы 07-Мар-2016 14:14

[Цитировать]

Бей первым, Фредди! / Slå først, Frede - Информация о фильме
Название: Бей первым, Фредди!
Оригинальное название: Slå først, Frede / Strike First Freddy
Год выхода: 1965
Жанр: комедия
Режиссер: Эрик Баллинг
В ролях: Мортен Грунвальд, Ове Спрогёе, Эсси Перссон, Поуль Бундгор, Мартин Хансен, Джон Виттиг, Фрэнки Стеель, Ёрген Блакстед, Эдвард Флеминг, Вальсё Хольм
О фильме:
Фредди — продавец игрушек и приколов, возвращается из командировки домой в Данию с полным чемоданом товара, намереваясь расширить свой бизнес. Но судьба распоряжается по-другому: вместо игрушечного бизнеса он вовлечен в недетскую войну двух разведок. Фредди становится подсадной уткой и должен играть роль шпиона, а для подстраховки к нему приставлен настоящий суперагент Смит. Как оказалось, Фредди не так прост. Он сам знает, как водить врага за нос, разрушать все его коварные планы и уничтожать секретные ракетные установки.

Страна: Дания
Студия: Nordisk Film
Продолжительность: 01:34:01
Перевод: Профессиональный (полное дублирование) Советский дубляж
Файл
Кодек: XviD
Качество: DVDRip
Видео: 704x384, 1882 kbps, 25 fps, 0,278 Bits/(Pixel*Frame)
Звук: AC3, 48 kHz, 2 ch, 192 kbps - RUS DUB
Субтитры: Нет
Размер файла: 1,37 Гб

MI

General
Complete name : G:\Freddie.Dylogy.1965.1966.DVDRip\Strike.First.Freddie.1965.DVDRip_by_Bathory.avi
Format : AVI
Format/Info : Audio Video Interleave
File size : 1.37 GiB
Duration : 1h 34mn
Overall bit rate : 2 084 Kbps
Writing application : VirtualDubMod 1.5.10.3 | www.virtualdub-fr.org || (build 2550/release)
Writing library : VirtualDubMod build 2550/release
Video
ID : 0
Format : MPEG-4 Visual
Format profile : Advanced Simple@L5
Format settings, BVOP : 1
Format settings, QPel : No
Format settings, GMC : No warppoints
Format settings, Matrix : Custom
Codec ID : XVID
Codec ID/Hint : XviD
Duration : 1h 34mn
Bit rate : 1 882 Kbps
Width : 704 pixels
Height : 384 pixels
Display aspect ratio : 1.85:1
Frame rate : 25.000 fps
Color space : YUV
Chroma subsampling : 4:2:0
Bit depth : 8 bits
Scan type : Progressive
Compression mode : Lossy
Bits/(Pixel*Frame) : 0.278
Stream size : 1.24 GiB (90%)
Writing library : XviD 73
Audio
ID : 1
Format : AC-3
Format/Info : Audio Coding 3
Mode extension : CM (complete main)
Format settings, Endianness : Big
Codec ID : 2000
Duration : 1h 34mn
Bit rate mode : Constant
Bit rate : 192 Kbps
Channel(s) : 2 channels
Channel positions : Front: L R
Sampling rate : 48.0 KHz
Bit depth : 16 bits
Compression mode : Lossy
Stream size : 129 MiB (9%)
Alignment : Split accross interleaves
Interleave, duration : 40 ms (1.00 video frame)
Interleave, preload duration : 500 ms

Скриншоты

---Расслабься, Фредди! / Slap af Frede! - Информация о фильме
Название: Расслабься, Фредди!
Оригинальное название: Slap af Frede! / Relax Freddie
Год выхода: 1966
Жанр: комедия
Режиссер: Эрик Баллинг
В ролях: Мортен Грунвальд, Ове Спрогёе, Ханне Борхсениус, Эрик Мёрк, Клара Понтоппидан, Асбьёрн Андерсен, Кристофер Кум, Дирх Пассер, Конни Андерсен, Тейдж Аксельсон
О фильме:
Продолжение увлекательной комедии "Бей первым, Фредди!" — истории Фредди Хансена, необычного агента, не по своей воле вовлеченного в жестокий и загадочный мир секретных служб.
Делегат международной конференции от Китая доктор Линг Фу, похищен прямо из аэропорта, следы похитителей ведут в Скандинавию. Датская секретная служба в панике — все ее агенты раскрыты, нужен человек, которого никто не знает. Суперагент — Фредди Хансен. Фредди снова идет по следу…

Страна: Дания
Студия: Nordisk Film
Продолжительность: 01:39:58
Перевод: Профессиональный (многоголосый закадровый)
Файл
Кодек: XviD
Качество: DVDRip
Видео: 704x384, 1890 kbps, 25 fps, 0,280 Bits/(Pixel*Frame)
Звук: AC3, 48 kHz, 2 ch, 192 kbps - RUS MVO
Субтитры: Нет
Размер файла: 1,45 Гб

MI

General
Complete name : G:\Freddie.Dylogy.1965.1966.DVDRip\Relax.Freddie.1966.DVDRip_by_Bathory.avi
Format : AVI
Format/Info : Audio Video Interleave
File size : 1.46 GiB
Duration : 1h 39mn
Overall bit rate : 2 091 Kbps
Writing application : VirtualDubMod 1.5.10.3 | www.virtualdub-fr.org || (build 2550/release)
Writing library : VirtualDubMod build 2550/release
Video
ID : 0
Format : MPEG-4 Visual
Format profile : Advanced Simple@L5
Format settings, BVOP : 1
Format settings, QPel : No
Format settings, GMC : No warppoints
Format settings, Matrix : Custom
Codec ID : XVID
Codec ID/Hint : XviD
Duration : 1h 39mn
Bit rate : 1 889 Kbps
Width : 704 pixels
Height : 384 pixels
Display aspect ratio : 1.85:1
Frame rate : 25.000 fps
Color space : YUV
Chroma subsampling : 4:2:0
Bit depth : 8 bits
Scan type : Progressive
Compression mode : Lossy
Bits/(Pixel*Frame) : 0.280
Stream size : 1.32 GiB (90%)
Writing library : XviD 73
Audio
ID : 1
Format : AC-3
Format/Info : Audio Coding 3
Mode extension : CM (complete main)
Format settings, Endianness : Big
Codec ID : 2000
Duration : 1h 39mn
Bit rate mode : Constant
Bit rate : 192 Kbps
Channel(s) : 2 channels
Channel positions : Front: L R
Sampling rate : 48.0 KHz
Bit depth : 16 bits
Compression mode : Lossy
Stream size : 137 MiB (9%)
Alignment : Split accross interleaves
Interleave, duration : 40 ms (1.00 video frame)
Interleave, preload duration : 500 ms

Скриншоты

Автор рипа: Bathory
[Профиль] [ЛС]
Кто просматривает тему:

Показать сообщения:    

Текущее время: Сегодня 10:49

Часовой пояс: GMT



Вы не можете начинать темы
Вы не можете отвечать на сообщения
Вы не можете редактировать свои сообщения
Вы не можете удалять свои сообщения
Вы не можете голосовать в опросах
Вы не можете прикреплять файлы к сообщениям
Вы не можете скачивать файлы