Без четверти два до нашей эры / Deux heures moins le quart avant Jesus-Christ (1982) BDRip 1080p by msltel | P

 
Автор Сообщение

sergej644 ®

Пол:

Стаж: 4 года 11 месяцев

Сообщений: 6035

Откуда: Soviet Union



Награды: Нет

Торрент-статистика

Создавать темы 17-Фев-2015 19:01

[Цитировать]

Год выпуска: 1982
Страна: Франция
Жанр: комедия
Продолжительность: 01:39:41
Перевод: профессиональный многоголосый
Субтитры: русские (на места без перевода)
Режиссёр: Жан Янн
В ролях: Колюш, Мишель Серро, Жан Янн, Франсуаза Фабиан, Мишель Оклер, Мими Кутелье, Андре Пусс, Мишель Константен, Филипп Клэй, Хосе Артур, Ив Муруси, Леон Зитрон, Валери Мересс, Даниэль Лалу, Поль Мерси, Лоуренс Ризнер, Мишель Тюго-Дори, Мэрлин Коруин
Описание: Цезарь помпезно готовится принять Клеопатру, в то время как жители его страны находятся на грани полной нищеты...

Качество: BDRip 1080p
Формат: MKV
Видео кодек: H.264
Видео: 12.2 Mбит/с, 1920x816, 23.976 кадра/с, 0.325 bpp
Аудио 1: русский, AC3, 640 kbps, 2 ch, 48 kHz [профессиональный многоголосый]
Аудио 2: французский, DTS, 1509 kbps, 2 ch, 48 kHz [оригинал]
Имеются неименованные главы/чаптеры.

MediaInfo

Общее
Уникальный идентификатор : 250381935058906694338449309748039381213 (0xBC5DCE7F109ED5B8AD77A94C77C9F0DD)
Полное имя : D:VideoBez chetverti dva.1982.BDRip.1080p.mkv
Формат : Matroska
Версия формата : Version 4 / Version 2
Размер файла : 10,2 Гбайт
Продолжительность : 1 ч. 39 м.
Общий поток : 14,7 Мбит/сек
Дата кодирования : UTC 2015-02-13 03:35:59
Программа кодирования : mkvmerge v7.6.0 ('Garden of Dreams') 64bit built on Feb 8 2015 13:04:34
Библиотека кодирования : libebml v1.3.1 + libmatroska v1.4.2
_STATISTICS_WRITING_APP : mkvmerge v7.6.0 ('Garden of Dreams') 64bit built on Feb 8 2015 13:04:34
_STATISTICS_WRITING_DATE_UTC : 2015-02-13 03:35:59
_STATISTICS_TAGS : BPS DURATION NUMBER_OF_FRAMES NUMBER_OF_BYTES
DURATION : 01:39:41.227000000
NUMBER_OF_FRAMES : 560740
NUMBER_OF_BYTES : 1128208944
Видео
Идентификатор : 1
Формат : AVC
Формат/Информация : Advanced Video Codec
Профиль формата : High@L4.1
Параметр CABAC формата : Да
Параметр ReFrames формата : 4 кадра
Идентификатор кодека : V_MPEG4/ISO/AVC
Продолжительность : 1 ч. 39 м.
Битрейт : 12,2 Мбит/сек
Ширина : 1920 пикселей
Высота : 816 пикселей
Соотношение сторон : 2,35:1
Режим частоты кадров : Постоянный
Частота кадров : 23,976 кадра/сек
Цветовое пространство : YUV
Субдискретизация насыщенности : 4:2:0
Битовая глубина : 8 бит
Тип развёртки : Прогрессивная
Бит/(Пиксели*Кадры) : 0.325
Размер потока : 8,51 Гбайт (83%)
Заголовок : BDRip -- STarankov
Библиотека кодирования : x264 core 142 r2431 ac76440
Настройки программы : cabac=1 / ref=4 / deblock=1:-1:-1 / analyse=0x3:0x113 / me=umh / subme=10 / psy=1 / psy_rd=1.00:0.15 / mixed_ref=1 / me_range=32 / chroma_me=1 / trellis=2 / 8x8dct=1 / cqm=0 / deadzone=21,11 / fast_pskip=1 / chroma_qp_offset=-3 / threads=6 / lookahead_threads=1 / sliced_threads=0 / nr=0 / decimate=1 / interlaced=0 / bluray_compat=0 / constrained_intra=0 / bframes=8 / b_pyramid=2 / b_adapt=2 / b_bias=0 / direct=3 / weightb=1 / open_gop=0 / weightp=2 / keyint=230 / keyint_min=23 / scenecut=40 / intra_refresh=0 / rc_lookahead=40 / rc=crf / mbtree=0 / crf=19.5 / qcomp=0.60 / qpmin=0 / qpmax=69 / qpstep=4 / vbv_maxrate=40000 / vbv_bufsize=50000 / crf_max=0.0 / nal_hrd=none / filler=0 / ip_ratio=1.40 / pb_ratio=1.30 / aq=1:1.00
Язык : French
Default : Да
Forced : Нет
DURATION : 01:39:41.267000000
NUMBER_OF_FRAMES : 143407
NUMBER_OF_BYTES : 9350421988
_STATISTICS_WRITING_APP : mkvmerge v7.6.0 ('Garden of Dreams') 64bit built on Feb 8 2015 13:04:34
_STATISTICS_WRITING_DATE_UTC : 2015-02-13 03:35:59
_STATISTICS_TAGS : BPS DURATION NUMBER_OF_FRAMES NUMBER_OF_BYTES
Аудио #1
Идентификатор : 2
Формат : AC-3
Формат/Информация : Audio Coding 3
Расширение режима : CM (complete main)
Параметр Endianness формата : Big
Идентификатор кодека : A_AC3
Продолжительность : 1 ч. 39 м.
Вид битрейта : Постоянный
Битрейт : 640 Кбит/сек
Каналы : 2 канала
Расположение каналов : Front: L R
Частота : 48,0 КГц
Битовая глубина : 16 бит
Метод сжатия : С потерями
Размер потока : 456 Мбайт (4%)
Заголовок : MVO
Язык : Russian
Default : Да
Forced : Нет
Аудио #2
Идентификатор : 3
Формат : DTS
Формат/Информация : Digital Theater Systems
Режим : 16
Параметр Endianness формата : Big
Идентификатор кодека : A_DTS
Продолжительность : 1 ч. 39 м.
Вид битрейта : Постоянный
Битрейт : 1509 Кбит/сек
Каналы : 2 канала
Расположение каналов : Front: L R
Частота : 48,0 КГц
Битовая глубина : 16 бит
Метод сжатия : С потерями
Размер потока : 1,05 Гбайт (10%)
Заголовок : Original
Язык : French
Default : Нет
Forced : Нет
Текст
Идентификатор : 4
Формат : UTF-8
Идентификатор кодека : S_TEXT/UTF8
Идентификатор кодека/Информация : UTF-8 Plain Text
Заголовок : русский (на места без перевода)
Язык : Russian
Default : Да
Forced : Да
Меню
00:00:00.000 : :Chapter 01
00:12:26.537 : :Chapter 02
00:18:03.957 : :Chapter 03
00:20:42.281 : :Chapter 04
00:23:46.674 : :Chapter 05
00:29:46.785 : :Chapter 06
00:43:26.518 : :Chapter 07
00:51:38.176 : :Chapter 08
00:55:18.314 : :Chapter 09
00:58:19.119 : :Chapter 10
01:03:17.918 : :Chapter 11
01:12:19.167 : :Chapter 12
01:29:34.118 : :Chapter 13
01:34:04.012 : :Chapter 14
01:35:23.134 : :Chapter 15
01:39:41.225 : :Chapter 16

Скриншоты


[Профиль] [ЛС]
Кто просматривает тему:

Показать сообщения:    

Текущее время: Сегодня 09:56

Часовой пояс: GMT



Вы не можете начинать темы
Вы не можете отвечать на сообщения
Вы не можете редактировать свои сообщения
Вы не можете удалять свои сообщения
Вы не можете голосовать в опросах
Вы не можете прикреплять файлы к сообщениям
Вы не можете скачивать файлы