Без срока давности (1986) SATRip-AVC

 
Автор Сообщение

sergej644 ®

Пол:

Стаж: 4 года 11 месяцев

Сообщений: 6046

Откуда: Soviet Union



Награды: Нет

Торрент-статистика

Создавать темы 27-Мар-2016 10:41

[Цитировать]

Информация о фильме
Название: Без срока давности
Год выхода: 1986
Жанр: детектив, шпионский
Режиссер: Эдгар Ходжикян
В ролях: Борис Щербаков, Пётр Глебов, Всеволод Сафонов, Людмила Нильская, Сергей Приселков, Всеволод Шиловский, Иван Шабалтас, Ирина Феофанова, Наталья Стриженова, Всеволод Ларионов, Рубен Е.Симонов, Валерий Гатаев, Улдис Лиелдидж, Юрий Гусев, Паул Буткевич, Тыну Луме, Виктор Шульгин, Юрий Саранцев, Эрнст Романов, Вадим Захарченко, Эрменгельд Коновалов, Маргарита Гладунко, Анатолий Голик, Валерий Головненков, Арчил Гомиашвили, Виталий Деркач, Михаил Жарковский, Леонид Зверинцев, Сергей Зинченко, Владимир Мащенко, Ибрагим Барги, Людмила Купина, Виктор Мамаев, Михаил Розанов, Ольга Степанова, Наталья Тихонова, Георгий Шахет, Александр Шворин
О фильме: Покидая приморский город в конце Второй мировой войны, эсэсовцы спрятали списки тайных агентов. Через несколько лет Сэм Пейдж (в прошлом - фашистский наемник Семен Пайгин) и двое других агентов приезжают в СССР с целью розыска архива. Ведь преступления агентов СС, как известно, не имеют срока давности…
Страна: СССР, Мосфильм
Продолжительность: 01:27:28
Перевод: не требуется
Файл
Кодек: x264
Качество: SATRip-AVC
Видео: MPEG-4 AVC, 2200 Кбит/с, [email protected]/* */
Звук: AC3, 2 ch, 192 Кбит/с

Скриншоты

Медиа-Инфо

Общее
Уникальный идентификатор : 198701453833928863528770349794054741320 (0x957C820BD7B66D3C92FEE97CE70D9D48)
Полное имя : R:МОИ РИПЫБез срока давности_1986-SATRip-AVC.mkv
Формат : Matroska
Версия формата : Version 2
Размер файла : 1,46 Гбайт
Продолжительность : 1 ч. 27 м.
Общий поток : 2394 Кбит/сек
Дата кодирования : UTC 2015-11-18 23:30:21
Программа кодирования : mkvmerge v5.8.0 ('No Sleep / Pillow') built on Sep 2 2012 15:37:04
Библиотека кодирования : libebml v1.2.3 + libmatroska v1.3.0
Видео
Идентификатор : 1
Формат : AVC
Формат/Информация : Advanced Video Codec
Профиль формата : High@L4.1
Параметр CABAC формата : Да
Параметр ReFrames формата : 15 кадров
Идентификатор кодека : V_MPEG4/ISO/AVC
Продолжительность : 1 ч. 27 м.
Битрейт : 2200 Кбит/сек
Ширина : 716 пикселей
Высота : 556 пикселей
Соотношение сторон : 1,372
Соотношение сторон в оригинале : 1,374
Режим частоты кадров : Постоянный
Частота кадров : 25,000 кадров/сек
Цветовое пространство : YUV
Субдискретизация насыщенности : 4:2:0
Битовая глубина : 8 бит
Тип развёртки : Прогрессивная
Бит/(Пиксели*Кадры) : 0.221
Размер потока : 1,32 Гбайт (90%)
Библиотека кодирования : x264 core 146 r2538 121396c
Настройки программы : cabac=1 / ref=15 / deblock=1:-2:-2 / analyse=0x3:0x133 / me=umh / subme=10 / psy=1 / psy_rd=1.05:0.15 / mixed_ref=1 / me_range=32 / chroma_me=1 / trellis=2 / 8x8dct=1 / cqm=0 / deadzone=21,11 / fast_pskip=0 / chroma_qp_offset=-3 / threads=12 / lookahead_threads=3 / sliced_threads=0 / nr=0 / decimate=0 / interlaced=0 / bluray_compat=0 / constrained_intra=0 / bframes=11 / b_pyramid=2 / b_adapt=2 / b_bias=0 / direct=3 / weightb=1 / open_gop=0 / weightp=2 / keyint=250 / keyint_min=25 / scenecut=40 / intra_refresh=0 / rc=2pass / mbtree=0 / bitrate=2200 / ratetol=1.0 / qcomp=0.63 / qpmin=0 / qpmax=39 / qpstep=4 / cplxblur=20.0 / qblur=0.5 / ip_ratio=1.40 / pb_ratio=1.30 / aq=1:1.00
Язык : English
Default : Да
Forced : Нет
Цветовой диапазон : Limited
Основные цвета : BT.601 PAL
Характеристики трансфера : BT.470 System B, BT.470 System G
Коэффициенты матрицы : BT.601
Аудио
Идентификатор : 2
Формат : AC-3
Формат/Информация : Audio Coding 3
Расширение режима : CM (complete main)
Параметр Endianness формата : Big
Идентификатор кодека : A_AC3
Продолжительность : 1 ч. 27 м.
Вид битрейта : Постоянный
Битрейт : 192 Кбит/сек
Каналы : 2 канала
Расположение каналов : Front: L R
Частота : 48,0 КГц
Метод сжатия : С потерями
Размер потока : 120 Мбайт (8%)
Язык : Russian
Default : Да
Forced : Нет
Автор релиза:
[Профиль] [ЛС]
Кто просматривает тему:

Показать сообщения:    

Текущее время: Сегодня 05:19

Часовой пояс: GMT



Вы не можете начинать темы
Вы не можете отвечать на сообщения
Вы не можете редактировать свои сообщения
Вы не можете удалять свои сообщения
Вы не можете голосовать в опросах
Вы не можете прикреплять файлы к сообщениям
Вы не можете скачивать файлы