Без следа (Без вести) / Серии 1-12, 14-15, 17-19, 21-23 из 23 (Станислав Либин) [2012 г., Детектив, HDTVRip]

 
Автор Сообщение

Pensioner ®

Стаж: 10 месяцев 29 дней

Сообщений: 265

Откуда: Казахстан



Награды: 1 (Подробнее)

За внесенный вклад в развитие сайта (Количество: 1)
Торрент-статистика

Создавать темы 01-Авг-2017 04:59

[Цитировать]

Без следа (Без вести)
Год выпуска: 2012
Страна: Россия, Кинокомпания "Русское"
Жанр: Детектив
Продолжительность: x ~ 00:48:00
Перевод: Не требуется
Режиссер: Станислав Либин
В ролях: Игорь Черневич, Ирина Розанова, Мария Берсенева, Константин Крюков, Евгений Миллер, Наталия Солдатова, Виктор Бычков, Ольга Науменко, Влад Канопка, Евгений Воловенко, Юлия Авшарова, Николай Сердцев, Олег Филипчик, Анжелика Вольская, Арсений Баринов, Ирина Баринова, Андрей Андреев, Александр Дзюба, Анна Соловейчик, Елена Суркова, Николай Сахаров, Василий Ракша, Иван Мудров, Татьяна Храмова (II), Олег Алмазов, Александр Серов-Останкинский, Сергей Комаров (II), Кирилл Кяро, Константин Демидов (II), Дмитрий Комов, Кристина Кучеренко, Юлия Ковалева, Геннадий Христенко, Ольга Мокшина, Игорь Петрусенко, Константин Гацалов, Екатерина Молоховская, Руслан Ягудин, Фаридуншо Рахматуллоев, Наргис Абдуллаева, Наргиля Терещенко, Юлия Яблонская, Светлана Закирова, Поля Полякова, Анастасия Привалова, Иван Иванов (V), Татьяна Косач-Брындина, Анастасия Синюк, Вероника Лысакова, Ирина Крутик, Виталий Кудрявцев, Денис Сердюков
Описание: Их пятеро. Они - следственная бригада. Рациональный и опытный Нефедов, его правая рука Мария, ответственный, но часто заблуждающийся Денис, романтичная и азартная Светлана, и Филипп - «золотой» сынок отца-фсбшника, пришедший набраться опыта. Перед ними практически невыполнимая задача - найти бесследно исчезнувшего человека. У пропавших, на первый взгляд, нет ни явных врагов, ни мотивов скрываться. Это самые разные люди - успешная женщина-бизнесмен, неудачливая манекенщица, подрабатывающая продавцом, ученик, решивший бросить школу, маленький мальчик, ехавший с отцом на футбольный матч... Чтобы выйти на след пропавших, нашим героям придется не только подключить опыт и профессиональное чутье, но и стать командой и научиться слышать друг друга - нередко самые, на первый взгляд, абсурдные догадки выведут на верный путь..
Доп. информация:
Качество: HDTVRip
Формат: AVI
Видео кодек: XviD
Аудио кодек: AC3
Видео: XviD, ~1650 Кбит/с, 720x400
Аудио: AC3, 2 ch, 192 Кбит/с

MediaInfo

Общее
Полное имя : D:\моё видио\Без следа (Без вести).2012.HDTVRip.by.Nicodem.Files-x\01.Без следа (Без вести).2012.HDTVRip.by.Nicodem.Files-x.avi
Формат : AVI
Формат/Информация : Audio Video Interleave
Размер файла : 700 Мбайт
Продолжительность : 52 м.
Общий поток : 1852 Кбит/сек
Программа кодирования : VirtualDubMod 1.5.10.3 | www.virtualdub-fr.org || (build 2550/release)
Библиотека кодирования : VirtualDubMod build 2550/release
Видео
Идентификатор : 0
Формат : MPEG-4 Visual
Профиль формата : Advanced Simple@L5
Параметр BVOP формата : 1
Параметр QPel формата : Нет
Параметр GMC формата : Без точки перехода
Параметр матрицы формата : Выборочная
Идентификатор кодека : XVID
Идентификатор кодека/Подсказка : XviD
Продолжительность : 52 м.
Битрейт : 1650 Кбит/сек
Ширина : 720 пикселей
Высота : 400 пикселей
Соотношение сторон : 16:9
Частота кадров : 25,000 кадров/сек
Цветовое пространство : YUV
Субдискретизация насыщенности : 4:2:0
Битовая глубина : 8 бит
Тип развёртки : Прогрессивная
Метод сжатия : С потерями
Бит/(Пиксели*Кадры) : 0.229
Размер потока : 624 Мбайт (89%)
Библиотека кодирования : XviD 1.2.1 (UTC 2008-12-04)
Аудио
Идентификатор : 1
Формат : AC-3
Формат/Информация : Audio Coding 3
Расширение режима : CM (complete main)
Параметр Endianness формата : Big
Идентификатор кодека : 2000
Продолжительность : 52 м.
Вид битрейта : Постоянный
Битрейт : 192 Кбит/сек
Каналы : 2 канала
Расположение каналов : Front: L R
Частота : 48,0 КГц
Битовая глубина : 16 бит
Метод сжатия : С потерями
Размер потока : 72,6 Мбайт (10%)
Выравнивание : Разделение по промежуткам
Продолжительность промежутка : 40 мс. (1,00 видеокадр)
Время предзагрузки промежутка : 500 мс.

Внимание! Раздача ведётся путём добавления новых серий

Раздача ведётся путём добавления новых серий, при каждом добавлении создаётся новый торрент. Чтобы начать докачку новой серии, пользователям необходимо сделать следующее:
- Остановить скачивание.
- Удалить старый торрент у себя из клиента (старые серии удалять не надо).
- Скачать новый торрент и запустить его у себя в клиенте вместо старого, при этом указать клиенту путь в старую папку куда и должно происходить скачивание новых серий.
Ваш клиент при этом должен произвести хеширование (проверку) старой папки (если не производит сам - помогите ему сделать это), и будет докачивать только те серии которых у вас ещё нет. Старые серии при этом не удаляются, а продолжают раздаваться!
Если вы уже удалили старые серии, то предотвратить повторную закачку старых серий можно, отжав галочку в соответствующих местах при запуске нового торрента. По возможности, желательно не удалять старые серии как можно дольше, чтобы релизер не столько продолжал раздавать старые серии, а смог сконцентрироваться на новых.

Скриншоты

Добавлены 1-23 серии.
[Профиль] [ЛС]

Pensioner ®

Стаж: 10 месяцев 29 дней

Сообщений: 265

Откуда: Казахстан



Награды: 1 (Подробнее)

За внесенный вклад в развитие сайта (Количество: 1)
Торрент-статистика

Создавать темы 22-Авг-2017 08:44 (спустя 21 день)

[Цитировать]

Добавлены 6-12, 14-15, 17-19, 21-23 серии.
ВНИМАНИЕ: канал Россия-1 HD не показал серии 13, 16 и 20?
ВНИМАНИЕ: Серии 9 и 11 по времени идут меньше, чем другие, канал Россия-1 HD сократил, их хронометраж?
[Профиль] [ЛС]
Кто просматривает тему:

Показать сообщения:    

Текущее время: Сегодня 19:08

Часовой пояс: GMT



Вы не можете начинать темы
Вы не можете отвечать на сообщения
Вы не можете редактировать свои сообщения
Вы не можете удалять свои сообщения
Вы не можете голосовать в опросах
Вы не можете прикреплять файлы к сообщениям
Вы не можете скачивать файлы