Без особых примет (Владимир Янощук) [2006, Украина, триллер, DVB]

 
Автор Сообщение

painkiller ®

Стаж: 2 года 3 месяца

Сообщений: 582



Награды: Нет

Торрент-статистика

Создавать темы 14-Авг-2014 13:00

[Цитировать]

Без особых примет (2 серии)
Страна: Украина
Жанр: триллер
Год выпуска: 2006
Продолжительность: 00:44:35 + 00:42:25
Перевод: Не требуется
Cубтитры: нет
Оригинальная аудиодорожка: нет
Режиссер: Владимир Янощук
В ролях: Станислав Боклан, Роман Лавров, Александр Суворов (III), Виктор Сарайкин, Виталий Линецкий, Александр Андриенко, Наталия Черемшинская, Владимир Ильенко, Игорь Тихомиров
Описание: Телефонный звонок. Незнакомый голос в трубке произнес только одну фразу: "Ты - покойник". Но банкир Сазонов не сильно встревожился, мало ли шутников. А зря...
Доп. информация: Запись потока *.ts со спутника HOT BIRD, ремукс в *.mpg программой VideoReDo.
Сэмпл: http://multi-up.com/974630
Качество видео: DVB
Формат видео: MPEG-PS
Видео: MPEG Video, 544(768)x576 (4:3), 25,000 кадров/сек, 2840 Кбит/сек
Аудио: MPEG Audio, 48,0 КГц, 192 Кбит/сек, 2 канала

MediaInfo

Общее
Полное имя : D:\MPG\Без особых примет\Без особых примет 1 (R1).mpg
Формат : MPEG-PS
Размер файла : 986 Мбайт
Продолжительность : 44 м.
Режим общего битрейта : Переменный
Общий поток : 3093 Кбит/сек
Видео
Идентификатор : 224 (0xE0)
Формат : MPEG Video
Версия формата : Version 2
Профиль формата : Main@Main
Параметр BVOP формата : Да
Параметр матрицы формата : Выборочная
Параметр GOP формата : M=3, N=12
Продолжительность : 44 м.
Вид битрейта : Переменный
Битрейт : 2840 Кбит/сек
Максимальный битрейт : 15,0 Мбит/сек
Ширина : 544 пикселя
Высота : 576 пикселей
Соотношение сторон : 4:3
Частота кадров : 25,000 кадров/сек
Цветовое пространство : YUV
Субдискретизация насыщенности : 4:2:0
Битовая глубина : 8 бит
Тип развёртки : Чересстрочная
Порядок развёртки : Верхнее поле первое
Метод сжатия : С потерями
Бит/(Пиксели*Кадры) : 0.363
Временной код первого кадра : 00:00:00:00
Оригинал временного кода : Group of pictures header
Размер потока : 906 Мбайт (92%)
Аудио
Идентификатор : 192 (0xC0)
Формат : MPEG Audio
Версия формата : Version 1
Профиль формата : Layer 2
Продолжительность : 44 м.
Вид битрейта : Постоянный
Битрейт : 192 Кбит/сек
Каналы : 2 канала
Частота : 48,0 КГц
Метод сжатия : С потерями
Задержка видео : 5 мс.
Размер потока : 61,2 Мбайт (6%)
Общее
Полное имя : D:\MPG\Без особых примет\Без особых примет 2 (R1).mpg
Формат : MPEG-PS
Размер файла : 939 Мбайт
Продолжительность : 42 м.
Режим общего битрейта : Переменный
Общий поток : 3094 Кбит/сек
Видео
Идентификатор : 224 (0xE0)
Формат : MPEG Video
Версия формата : Version 2
Профиль формата : Main@Main
Параметр BVOP формата : Да
Параметр матрицы формата : Выборочная
Параметр GOP формата : M=3, N=12
Продолжительность : 42 м.
Вид битрейта : Переменный
Битрейт : 2840 Кбит/сек
Максимальный битрейт : 15,0 Мбит/сек
Ширина : 544 пикселя
Высота : 576 пикселей
Соотношение сторон : 4:3
Частота кадров : 25,000 кадров/сек
Цветовое пространство : YUV
Субдискретизация насыщенности : 4:2:0
Битовая глубина : 8 бит
Тип развёртки : Чересстрочная
Порядок развёртки : Верхнее поле первое
Метод сжатия : С потерями
Бит/(Пиксели*Кадры) : 0.363
Временной код первого кадра : 00:00:00:00
Оригинал временного кода : Group of pictures header
Размер потока : 862 Мбайт (92%)
Аудио
Идентификатор : 192 (0xC0)
Формат : MPEG Audio
Версия формата : Version 1
Профиль формата : Layer 2
Продолжительность : 42 м.
Вид битрейта : Постоянный
Битрейт : 192 Кбит/сек
Каналы : 2 канала
Частота : 48,0 КГц
Метод сжатия : С потерями
Задержка видео : 21 мс.
Размер потока : 58,3 Мбайт (6%)

Скриншот c названием фильма

[Профиль] [ЛС]

Создавать темы 06-Авг-2015 23:14 (спустя 11 месяцев 23 дня)

Топик был перенесен из форума Фильмы до 2014 года в форум Фильмы до 2012 года
sergej644
 
Кто просматривает тему:

Показать сообщения:    

Текущее время: Сегодня 12:11

Часовой пояс: GMT



Вы не можете начинать темы
Вы не можете отвечать на сообщения
Вы не можете редактировать свои сообщения
Вы не можете удалять свои сообщения
Вы не можете голосовать в опросах
Вы не можете прикреплять файлы к сообщениям
Вы не можете скачивать файлы