Без компромиссов / Blitz (2011) BDRip 720p от ivandubskoj | D, P1, A, L1

 
Автор Сообщение

Russian Mafia ®

Пол:

Стаж: 1 год 8 месяцев

Сообщений: 4257



Награды: 10 (Подробнее)

Top Releaser 5 (Количество: 1) Top Releaser 2 (Количество: 1) Mega Seeder 3 (Количество: 1)
Торрент-статистика

Создавать темы 23-Апр-2016 05:09

[Цитировать]

Информация о фильме
Название: Без компромиссов
Оригинальное название: Blitz
Год выхода: 2011
Жанр: Триллер, боевик, криминал, экранизация
Режиссёр: Эллиотт Лестер
В ролях: Джейсон Стэйтем, Люк Эванс, Эйден Гиллен, Пэдди Консидайн, Зэйв Эштон, Дэвид Моррисси, Рон Донаки, Джозеф Демпси, Марк Райлэнс, Элли Фэйрмэн, Нед Деннехи, Ричард Ридделл, Никки Хенсон, Набил Елухаби, Алекс Ланипекун, Срджан Сорик, Тейлор Джеймс, Стивен Харвуд-Браун, Рис Бомонт, Грегори Финнегэн, Билл Чемпион, Дес Баррон, Люк Баррон, Джек Бенс, Джон Бертон, Майкл Бирч, Ребекка Ив, Риши Гхош, Руперт Холидэй-Эванс, Омар Хосейн, Джули Холт
О фильме:
Семь или восемь? Не в граммах, а в полицейских!.. Именно этим вопросом задается лондонский маньяк, решивший прославиться. Выбрав себе для первых полос таблоидов звучный псевдоним Блиц и вооружившись молотком, Барри Вайс выходит на улицы. И теперь главному герою придется спасать свою шкуру и пытаться остановить сумасшедшего убийцу…

Выпущено: Великобритания, Франция, США, Blitz Films, Lionsgate
Продолжительность: 01:37:00
Перевод: Дублированный (ст. "Пифагор"), профессиональный одноголосый (А. Дасевич), авторский одноголосый (А. Гаврилов), авторский одноголосый (М. Яроцкий), любительский одноголосый (В. Замез - с цензурой), любительский одноголосый (В. Замез - БЕЗ цензуры), украинский дублированный (DR Studio) (Студия "ДИ АР", Украина)
Оригинальная аудио-дорожка: Английская
Файл
Контейнер: MKV
Кодек: MPEG-4 AVC
Качество: BDRip (720p) [Исходник: Blu-ray Custom (1080p) от BlueBird]
Видео: MPEG-4 AVC, 1280x544 (2.35:1), 6000 Кбит/с, 24 кадр/с, 0.359 bit/pixel
Аудио #1: Русский, Dolby AC3, 48000 Гц, 640 Кбит/с, 6 каналов (5.1) - DUB [ст. "Пифагор"]
Аудио #2: Русский, Dolby AC3, 48000 Гц, 640 Кбит/с, 6 каналов (5.1) - VO [А. Дасевич]
Аудио #3: Русский, Dolby AC3, 48000 Гц, 640 Кбит/с, 6 каналов (5.1) - AVO [А. Гаврилов]
Аудио #4: Русский, Dolby AC3, 48000 Гц, 448 Кбит/с, 6 каналов (5.1) - AVO [М. Яроцкий]
Аудио #5: Русский, Dolby AC3, 48000 Гц, 448 Кбит/с, 6 каналов (5.1) - VO [В. Замез] - С цензурой
Аудио #6: Русский, Dolby AC3, 48000 Гц, 448 Кбит/с, 6 каналов (5.1) - VO [В. Замез] - БЕЗ цензуры
Аудио #7: Украинский, Dolby AC3, 48000 Гц, 640 Кбит/с, 6 каналов (5.1) - DUB [DR Studio] (Студия "ДИ АР", Украина)
Аудио #8: Английский, Dolby AC3, 48000 Гц, 640 Кбит/с, 6 каналов (5.1) - Оригинал
Субтитры: Русские, украинские (полные), английские (полные, SDH), SRT
Навигация по главам: Есть (с названием всех глав)

Знаете ли вы, что...

Фильм снят по мотивам романа Кена Бруена «Blitz».
Кен Бруен, автор книги, по которой снят фильм, сыграл небольшую роль священника на похоронах.
Во время сцены убийства Блица сержант Брант стреляет из обычного самозарядного пистолета, но в моменте, когда выстрел показывается сбоку, в руке у Бранта можно заметить пистолет револьверного типа с открытой наружностью.

MediaInfo

General
Unique ID : 178083851649156480174853837700597878699 (0x85F9B3C6ACD7C3D4B64D6C419DF10FAB)
Complete name : Blitz.2011.BDRip.720p.mkv
Format : Matroska
Format version : Version 4 / Version 2
File size : 7.15 GiB
Duration : 1h 37mn
Overall bit rate : 10.5 Mbps
Movie name : Без компромиссов / Blitz (2011) BDRip (720p) от ivandubskoj
Encoded date : UTC 2016-04-22 18:41:38
Writing application : mkvmerge v7.8.0 ('River Man') 64bit built on Mar 27 2015 16:31:37
Writing library : libebml v1.3.1 + libmatroska v1.4.2
Video
ID : 1
Format : AVC
Format/Info : Advanced Video Codec
Format profile : High@L4.1
Format settings, CABAC : Yes
Format settings, ReFrames : 10 frames
Codec ID : V_MPEG4/ISO/AVC
Duration : 1h 37mn
Bit rate : 6 000 Kbps
Width : 1 280 pixels
Height : 544 pixels
Display aspect ratio : 2.35:1
Frame rate mode : Constant
Frame rate : 24.000 fps
Color space : YUV
Chroma subsampling : 4:2:0
Bit depth : 8 bits
Scan type : Progressive
Bits/(Pixel*Frame) : 0.359
Stream size : 3.93 GiB (55%)
Title : Без компромиссов / Blitz (2011)
Writing library : x264 core 146 r2538 121396c
Encoding settings : cabac=1 / ref=10 / deblock=1:-3:-3 / analyse=0x3:0x113 / me=umh / subme=10 / psy=1 / psy_rd=1.10:0.10 / mixed_ref=1 / me_range=32 / chroma_me=1 / trellis=2 / 8x8dct=1 / cqm=0 / deadzone=21,11 / fast_pskip=0 / chroma_qp_offset=-3 / threads=6 / lookahead_threads=1 / sliced_threads=0 / nr=0 / decimate=0 / interlaced=0 / bluray_compat=0 / constrained_intra=0 / bframes=7 / b_pyramid=2 / b_adapt=2 / b_bias=0 / direct=3 / weightb=1 / open_gop=0 / weightp=2 / keyint=240 / keyint_min=23 / scenecut=40 / intra_refresh=0 / rc_lookahead=40 / rc=2pass / mbtree=0 / bitrate=6000 / ratetol=1.0 / qcomp=0.60 / qpmin=0 / qpmax=69 / qpstep=4 / cplxblur=20.0 / qblur=0.5 / vbv_maxrate=50000 / vbv_bufsize=62500 / nal_hrd=none / filler=0 / ip_ratio=1.40 / pb_ratio=1.30 / aq=1:1.00
Language : English
Default : Yes
Forced : No
Audio #1
ID : 2
Format : AC-3
Format/Info : Audio Coding 3
Mode extension : CM (complete main)
Format settings, Endianness : Big
Codec ID : A_AC3
Duration : 1h 37mn
Bit rate mode : Constant
Bit rate : 640 Kbps
Channel(s) : 6 channels
Channel positions : Front: L C R, Side: L R, LFE
Sampling rate : 48.0 KHz
Bit depth : 16 bits
Compression mode : Lossy
Stream size : 444 MiB (6%)
Title : DUB [ст. "Пифагор"]
Language : Russian
Default : Yes
Forced : No
Audio #2
ID : 3
Format : AC-3
Format/Info : Audio Coding 3
Mode extension : CM (complete main)
Format settings, Endianness : Big
Codec ID : A_AC3
Duration : 1h 37mn
Bit rate mode : Constant
Bit rate : 640 Kbps
Channel(s) : 6 channels
Channel positions : Front: L C R, Side: L R, LFE
Sampling rate : 48.0 KHz
Bit depth : 16 bits
Compression mode : Lossy
Stream size : 444 MiB (6%)
Title : VO [А. Дасевич]
Language : Russian
Default : No
Forced : No
Audio #3
ID : 4
Format : AC-3
Format/Info : Audio Coding 3
Mode extension : CM (complete main)
Format settings, Endianness : Big
Codec ID : A_AC3
Duration : 1h 37mn
Bit rate mode : Constant
Bit rate : 640 Kbps
Channel(s) : 6 channels
Channel positions : Front: L C R, Side: L R, LFE
Sampling rate : 48.0 KHz
Bit depth : 16 bits
Compression mode : Lossy
Stream size : 444 MiB (6%)
Title : AVO [А. Гаврилов]
Language : Russian
Default : No
Forced : No
Audio #4
ID : 5
Format : AC-3
Format/Info : Audio Coding 3
Mode extension : CM (complete main)
Format settings, Endianness : Big
Codec ID : A_AC3
Duration : 1h 37mn
Bit rate mode : Constant
Bit rate : 448 Kbps
Channel(s) : 6 channels
Channel positions : Front: L C R, Side: L R, LFE
Sampling rate : 48.0 KHz
Bit depth : 16 bits
Compression mode : Lossy
Stream size : 311 MiB (4%)
Title : AVO [М. Яроцкий]
Language : Russian
Default : No
Forced : No
Audio #5
ID : 6
Format : AC-3
Format/Info : Audio Coding 3
Mode extension : CM (complete main)
Format settings, Endianness : Big
Codec ID : A_AC3
Duration : 1h 37mn
Bit rate mode : Constant
Bit rate : 448 Kbps
Channel(s) : 6 channels
Channel positions : Front: L C R, Side: L R, LFE
Sampling rate : 48.0 KHz
Bit depth : 16 bits
Compression mode : Lossy
Stream size : 311 MiB (4%)
Title : VO [В. Замез]
Language : Russian
Default : No
Forced : No
Audio #6
ID : 7
Format : AC-3
Format/Info : Audio Coding 3
Mode extension : CM (complete main)
Format settings, Endianness : Big
Codec ID : A_AC3
Duration : 1h 37mn
Bit rate mode : Constant
Bit rate : 448 Kbps
Channel(s) : 6 channels
Channel positions : Front: L C R, Side: L R, LFE
Sampling rate : 48.0 KHz
Bit depth : 16 bits
Compression mode : Lossy
Stream size : 311 MiB (4%)
Title : VO [В. Замез] [Uncencored]
Language : Russian
Default : No
Forced : No
Audio #7
ID : 8
Format : AC-3
Format/Info : Audio Coding 3
Mode extension : CM (complete main)
Format settings, Endianness : Big
Codec ID : A_AC3
Duration : 1h 37mn
Bit rate mode : Constant
Bit rate : 640 Kbps
Channel(s) : 6 channels
Channel positions : Front: L C R, Side: L R, LFE
Sampling rate : 48.0 KHz
Bit depth : 16 bits
Compression mode : Lossy
Stream size : 444 MiB (6%)
Title : DUB [DR Studio]
Language : Ukrainian
Default : No
Forced : No
Audio #8
ID : 9
Format : AC-3
Format/Info : Audio Coding 3
Mode extension : CM (complete main)
Format settings, Endianness : Big
Codec ID : A_AC3
Duration : 1h 37mn
Bit rate mode : Constant
Bit rate : 640 Kbps
Channel(s) : 6 channels
Channel positions : Front: L C R, Side: L R, LFE
Sampling rate : 48.0 KHz
Bit depth : 16 bits
Compression mode : Lossy
Stream size : 444 MiB (6%)
Title : Original
Language : English
Default : No
Forced : No
Text #1
ID : 10
Format : UTF-8
Codec ID : S_TEXT/UTF8
Codec ID/Info : UTF-8 Plain Text
Title : Full
Language : Russian
Default : No
Forced : No
Text #2
ID : 11
Format : UTF-8
Codec ID : S_TEXT/UTF8
Codec ID/Info : UTF-8 Plain Text
Title : Full
Language : Ukrainian
Default : No
Forced : No
Text #3
ID : 12
Format : UTF-8
Codec ID : S_TEXT/UTF8
Codec ID/Info : UTF-8 Plain Text
Title : Full
Language : English
Default : No
Forced : No
Text #4
ID : 13
Format : UTF-8
Codec ID : S_TEXT/UTF8
Codec ID/Info : UTF-8 Plain Text
Title : Full [SDH]
Language : English
Default : No
Forced : No
Menu
00:00:00.000 : en:Maint Titles
00:06:38.500 : en:Violent Urges
00:15:10.416 : en:Temporary Promotion
00:23:06.333 : en:Minimalist
00:29:14.291 : en:Familiar Face
00:38:36.416 : en:Can't Say
00:45:27.958 : en:Pull A Few Strin
00:52:15.666 : en:Big And White
01:00:46.583 : en:You're Nothing
01:08:06.875 : en:Just A Junkie
01:16:12.541 : en:Playing Along
01:31:33.958 : en:End Credits

Скриншоты



Автор рипа - ivandubskoj
[Профиль] [ЛС]
Кто просматривает тему:

Показать сообщения:    

Текущее время: Сегодня 16:23

Часовой пояс: GMT



Вы не можете начинать темы
Вы не можете отвечать на сообщения
Вы не можете редактировать свои сообщения
Вы не можете удалять свои сообщения
Вы не можете голосовать в опросах
Вы не можете прикреплять файлы к сообщениям
Вы не можете скачивать файлы