Без истерики! / Hysteria (Таня Уэкслер / Tanya Wexler) [2010, Драма, мелодрама, комедия, BDRip-AVC] Dub + Sub (Rus)

 
Автор Сообщение

reversefile ®

Пол:

Стаж: 4 года 5 месяцев

Сообщений: 842

Откуда: ReverseFile.org



Награды: Нет

Торрент-статистика

Создавать темы 13-Авг-2014 10:03

[Цитировать]

Без истерики! / Hysteria
Страна: Германия, Франция, Великобритания, Люксембург / Forthcoming Productions, Informant Media, Canal+ [fr]...
Жанр: Драма, мелодрама, комедия
Год выпуска: 2010
Продолжительность: 01:39:07-Перевод: Профессиональный (полное дублирование) [лицензия]
Cубтитры: русские
Формат субтитров: softsub (SRT)
Оригинальная аудиодорожка: нет-Режиссер: Таня Уэкслер / Tanya Wexler
В ролях: Мэгги Джилленхол, Хью Дэнси, Джонатан Прайс, Фелисити Джонс, Руперт Эверетт, Эшли Дженсен, Шеридан Смит, Доминик Боррелли, Анна Чэнселлор, Ким Крисвелл
Описание: Викторианская Англия, 1880 год. Выпускник медицинской школы Мортимер Грэнвиль устраивается на работу в кабинет доктора Далримпла, который славится на весь Лондон уникальным методом лечения «истерии» — женского перевозбуждения — с помощью интимного массажа. Популярность «ручного» метода Далримпла растет с астрономической скоростью, и справляться с наплывом страждущих пациенток становится все сложнее.-
Релиз от:
Автор рипа: potroks-Качество видео: BDRip-AVC [HYSTERIA_HDCLUB]
Формат видео: MKV
Видео: х.264, 1064x456 (2,35:1), 24,000 fps, 2515 Кbps, 0.216 bit/pixel
Аудио: 48 kHz, AC3 Dolby Digital, 3/2 (L,C,R,l,r) + LFE ch, 384.00 kbps

MediaInfo

Общее
Уникальный идентификатор : 243553399168214411396051577955001083355 (0xB73AADAEFFF7A8668D83C3F465A4A5DB)
Полное имя : Bez.Isteriki.2011.RUS.BDRip.x264.-HELLYWOOD.mkv
Формат : Matroska
Версия формата : Version 4 / Version 2
Размер файла : 2,05 Гбайт
Продолжительность : 1 ч. 39 м.
Общий поток : 2953 Кбит/сек
Название фильма : Hysteria (2011) - HELLYWOOD
Дата кодирования : UTC 2014-07-15 20:08:56
Программа кодирования : mkvmerge v5.9.0 ('On The Loose') built on Dec 15 2012 16:39:58
Библиотека кодирования : libebml v1.3.0 + libmatroska v1.4.0
Видео
Идентификатор : 1
Формат : AVC
Формат/Информация : Advanced Video Codec
Профиль формата : High@L4.1
Параметр CABAC формата : Да
Параметр ReFrames формата : 11 кадров
Идентификатор кодека : V_MPEG4/ISO/AVC
Продолжительность : 1 ч. 39 м.
Битрейт : 2515 Кбит/сек
Ширина : 1064 пикселя
Высота : 456 пикселей
Соотношение сторон : 2,35:1
Режим частоты кадров : Постоянный
Частота кадров : 24,000 кадра/сек
Цветовое пространство : YUV
Субдискретизация насыщенности : 4:2:0
Битовая глубина : 8 бит
Тип развёртки : Прогрессивная
Бит/(Пиксели*Кадры) : 0.216
Размер потока : 1,70 Гбайт (83%)
Заголовок : potroks
Библиотека кодирования : x264 core 116 r2019M 9cc407d
Настройки программы : cabac=1 / ref=12 / deblock=1:-2:-1 / analyse=0x3:0x133 / me=umh / subme=9 / psy=1 / psy_rd=1.00:0.00 / mixed_ref=1 / me_range=40 / chroma_me=1 / trellis=1 / 8x8dct=1 / cqm=0 / deadzone=21,12 / fast_pskip=0 / chroma_qp_offset=-2 / threads=8 / sliced_threads=0 / nr=0 / decimate=1 / interlaced=0 / bluray_compat=0 / constrained_intra=0 / bframes=8 / b_pyramid=1 / b_adapt=2 / b_bias=0 / direct=3 / weightb=1 / open_gop=0 / weightp=2 / keyint=240 / keyint_min=24 / scenecut=40 / intra_refresh=0 / rc_lookahead=100 / rc=2pass / mbtree=1 / bitrate=2515 / ratetol=1.0 / qcomp=0.60 / qpmin=10 / qpmax=51 / qpstep=4 / cplxblur=20.0 / qblur=0.6 / ip_ratio=1.37 / aq=1:1.20
Язык : English
Default : Да
Forced : Нет
Аудио
Идентификатор : 2
Формат : AC-3
Формат/Информация : Audio Coding 3
Расширение режима : CM (complete main)
Параметр Endianness формата : Big
Идентификатор кодека : A_AC3
Продолжительность : 1 ч. 39 м.
Вид битрейта : Постоянный
Битрейт : 448 Кбит/сек
Каналы : 6 каналов
Расположение каналов : Front: L C R, Side: L R, LFE
Частота : 48,0 КГц
Битовая глубина : 16 бит
Метод сжатия : С потерями
Размер потока : 319 Мбайт (15%)
Заголовок : Dub | DD 5.1 @ 448 kbps - BD RUS
Язык : Russian
Default : Да
Forced : Нет
Текст
Идентификатор : 3
Формат : UTF-8
Идентификатор кодека : S_TEXT/UTF8
Идентификатор кодека/Информация : UTF-8 Plain Text
Язык : Russian
Default : Нет
Forced : Нет
Меню
00:00:00.000 : en:Chapter 01
00:06:27.500 : en:Chapter 02
00:11:25.125 : en:Chapter 03
00:16:03.083 : en:Chapter 04
00:21:10.708 : en:Chapter 05
00:25:41.166 : en:Chapter 06
00:29:54.000 : en:Chapter 07
00:35:54.541 : en:Chapter 08
00:43:05.875 : en:Chapter 09
00:48:57.750 : en:Chapter 10
00:53:49.583 : en:Chapter 11
00:59:44.083 : en:Chapter 12
01:05:54.333 : en:Chapter 13
01:12:15.666 : en:Chapter 14
01:18:26.583 : en:Chapter 15
01:24:57.916 : en:Chapter 16
01:31:19.875 : en:Chapter 17
01:37:24.875 : en:Chapter 18
01:39:06.875 : en:Chapter 19
[Профиль] [ЛС]

Создавать темы 06-Авг-2015 23:18 (спустя 11 месяцев 24 дня)

Топик был перенесен из форума Фильмы до 2014 года в форум Фильмы до 2012 года
sergej644
 

Создавать темы 12-Июн-2016 07:54 (спустя 1 год 9 месяцев)

Топик был перенесен из форума Фильмы 2011 года в форум Фильмы 2010 года
Russian Mafia
 
Кто просматривает тему:

Показать сообщения:    

Текущее время: Сегодня 12:10

Часовой пояс: GMT



Вы не можете начинать темы
Вы не можете отвечать на сообщения
Вы не можете редактировать свои сообщения
Вы не можете удалять свои сообщения
Вы не можете голосовать в опросах
Вы не можете прикреплять файлы к сообщениям
Вы не можете скачивать файлы