Безумцы из Скотланд-Ярда / Neues vom Wixxer (Сирил Босс / Cyrill Boss, Филипп Штеннерт / Philipp Stennert) [2007, Германия, комедия, криминал, детектив, BDRip-AVC] Dub + AVO + Sub Rus

 
Автор Сообщение

painkiller ®

Стаж: 2 года 3 месяца

Сообщений: 582



Награды: Нет

Торрент-статистика

Создавать темы 15-Авг-2014 10:17

[Цитировать]

Безумцы из Скотланд-Ярда / Neues vom Wixxer
Страна: Германия
Жанр: комедия, криминал, детектив
Год выпуска: 2007
Продолжительность: 01:36:19
Перевод: Профессиональный (дублированный)
Перевод 2: Авторский (одноголосый закадровый)
Cубтитры: Russian (PGS), German (PGS)
Оригинальная аудиодорожка: German
Режиссер: Сирил Босс / Cyrill Boss, Филипп Штеннерт / Philipp Stennert
В ролях: Оливер Калкофе, Бастиан Пастевка, Йоахим Фуксбергер, Кристиана Пауль, Кристоф Мария Хербст, Вольфганг Вёльц, Соня Кирхбергер, Юди Винтер, Кристиан Трамиц, Оливер Велке
Описание: Инспекторы Вери Мачо и Вери Мач, гоняются по всему Лондону за неуемным убийцей, который сеет в городе страх и ведет себя вызывающе нагло, устраивая побоище даже в кабинете главы Скотланд-Ярда. Темной-темной ночью на городском кладбище детективы обнаруживают семь свежевырытых могил с надгробными памятниками, на одном из них — имя Вери Мача, на другом — Виктории, любимой девушки его напарника. Им и еще пяти жертвам осталось жить сутки — гласит послание уверенного в своей безнаказанности злодея...
Сэмпл: http://multi-up.com/954939
Качество видео: BDRip-AVC
Исходник: Neues.vom.Wixxer.2007.1080p BD-Remux.HDCLUB
Формат видео: MKV
Видео: AVC, 1024x432 (2.35:1), 23.976 fps, 2 111 Kbps (0.199 bit/pixel)
Аудио: AC-3, 48.0 KHz, 6 ch, 448 Kbps, CBR (Russian |Дубляж, DVD|)
Аудио 2: AC-3, 48.0 KHz, 2 ch, 192 Kbps, CBR (Russian |Одногоголосый закадровый, Ю.Сербин, DVD|)
Аудио 3: AC-3, 48.0 KHz, 6 ch, 448 Kbps, CBR (German)

Лог х264

x264 [info]: frame I:1470 Avg QP:15.24 size: 75997 PSNR Mean Y:47.50 U:51.75 V:51.88 Avg:48.40 Global:48.09
x264 [info]: frame P:29808 Avg QP:17.86 size: 23395 PSNR Mean Y:45.11 U:50.01 V:50.09 Avg:46.09 Global:45.69
x264 [info]: frame B:108993 Avg QP:20.30 size: 6741 PSNR Mean Y:43.70 U:49.78 V:49.93 Avg:44.83 Global:44.40
x264 [info]: consecutive B-frames: 2.2% 2.0% 5.5% 23.8% 18.8% 37.9% 5.5% 1.7% 1.3% 0.6% 0.4% 0.2% 0.3%
x264 [info]: mb I I16..4: 5.5% 77.1% 17.5%
x264 [info]: mb P I16..4: 1.0% 7.6% 1.2% P16..4: 41.3% 22.9% 18.6% 0.8% 0.3% skip: 6.4%
x264 [info]: mb B I16..4: 0.0% 0.6% 0.1% B16..8: 42.6% 10.4% 3.0% direct: 4.8% skip:38.5% L0:43.5% L1:46.9% BI: 9.6%
x264 [info]: 8x8 transform intra:78.1% inter:59.3%
x264 [info]: direct mvs spatial:96.2% temporal:3.8%
x264 [info]: coded y,uvDC,uvAC intra: 86.5% 69.7% 48.9% inter: 26.2% 16.4% 2.9%
x264 [info]: i16 v,h,dc,p: 46% 16% 10% 29%
x264 [info]: i8 v,h,dc,ddl,ddr,vr,hd,vl,hu: 11% 8% 8% 10% 14% 14% 13% 11% 12%
x264 [info]: i4 v,h,dc,ddl,ddr,vr,hd,vl,hu: 11% 7% 4% 10% 16% 15% 13% 12% 12%
x264 [info]: i8c dc,h,v,p: 46% 22% 18% 14%
x264 [info]: Weighted P-Frames: Y:3.5% UV:1.8%
x264 [info]: ref P L0: 44.8% 11.1% 18.4% 6.6% 5.8% 3.9% 3.8% 1.9% 1.9% 1.6% 0.2% 0.0%
x264 [info]: ref B L0: 71.1% 13.0% 6.2% 3.2% 2.2% 1.9% 1.5% 0.6% 0.3%
x264 [info]: ref B L1: 91.6% 8.4%

MediaInfo

Общее
Уникальный идентификатор : 177263345101493208057972189312479860147 (0x855BADAE117BE3B8AC6927795D0F15B3)
Полное имя : D:Загрузки из интернетаМои рипыБезумцы из Скотланд-ЯрдаNeues.vom.Wixxer (2007).BDRip-AVC.kep-001.mkv
Формат : Matroska
Версия формата : Version 4 / Version 2
Размер файла : 2,18 Гбайт
Продолжительность : 1 ч. 36 м.
Общий поток : 3242 Кбит/сек
Название фильма : Neues vom Wixxer (2007) от R.G. PiratFilms
Дата кодирования : UTC 2014-02-27 05:10:10
Программа кодирования : mkvmerge v6.6.0 ('The Edge Of The In Between') built on Dec 1 2013 17:55:00
Библиотека кодирования : libebml v1.3.0 + libmatroska v1.4.1
Видео
Идентификатор : 1
Формат : AVC
Формат/Информация : Advanced Video Codec
Профиль формата : High@L4.1
Параметр CABAC формата : Да
Параметр ReFrames формата : 10 кадров
Идентификатор кодека : V_MPEG4/ISO/AVC
Продолжительность : 1 ч. 36 м.
Битрейт : 2111 Кбит/сек
Ширина : 1024 пикселя
Высота : 432 пикселя
Соотношение сторон : 2,40:1
Режим частоты кадров : Постоянный
Частота кадров : 23,976 кадра/сек
Цветовое пространство : YUV
Субдискретизация насыщенности : 4:2:0
Битовая глубина : 8 бит
Тип развёртки : Прогрессивная
Бит/(Пиксели*Кадры) : 0.199
Размер потока : 1,41 Гбайт (64%)
Заголовок : Rip ot kep
Библиотека кодирования : x264 core 138 r2358 9e941d1
Настройки программы : cabac=1 / ref=10 / deblock=1:-3:-2 / analyse=0x3:0x133 / me=umh / subme=9 / psy=1 / psy_rd=1.00:0.00 / mixed_ref=1 / me_range=32 / chroma_me=1 / trellis=2 / 8x8dct=1 / cqm=0 / deadzone=21,11 / fast_pskip=0 / chroma_qp_offset=-2 / threads=2 / lookahead_threads=1 / sliced_threads=0 / nr=0 / decimate=1 / interlaced=0 / bluray_compat=0 / constrained_intra=0 / bframes=12 / b_pyramid=2 / b_adapt=2 / b_bias=0 / direct=3 / weightb=1 / open_gop=0 / weightp=2 / keyint=240 / keyint_min=23 / scenecut=40 / intra_refresh=0 / rc_lookahead=60 / rc=2pass / mbtree=1 / bitrate=2111 / ratetol=1.0 / qcomp=0.60 / qpmin=10 / qpmax=51 / qpstep=4 / cplxblur=20.0 / qblur=0.5 / ip_ratio=1.40 / aq=1:1.00
Язык : German
Default : Да
Forced : Нет
Аудио #1
Идентификатор : 2
Формат : AC-3
Формат/Информация : Audio Coding 3
Расширение режима : CM (complete main)
Параметр Endianness формата : Big
Идентификатор кодека : A_AC3
Продолжительность : 1 ч. 36 м.
Вид битрейта : Постоянный
Битрейт : 448 Кбит/сек
Каналы : 6 каналов
Расположение каналов : Front: L C R, Side: L R, LFE
Частота : 48,0 КГц
Битовая глубина : 16 бит
Метод сжатия : С потерями
Размер потока : 309 Мбайт (14%)
Заголовок : DUB.DVD
Язык : Russian
Default : Нет
Forced : Нет
Аудио #2
Идентификатор : 3
Формат : AC-3
Формат/Информация : Audio Coding 3
Расширение режима : CM (complete main)
Параметр Endianness формата : Big
Идентификатор кодека : A_AC3
Продолжительность : 1 ч. 36 м.
Вид битрейта : Постоянный
Битрейт : 192 Кбит/сек
Каналы : 2 канала
Расположение каналов : Front: L R
Частота : 48,0 КГц
Битовая глубина : 16 бит
Метод сжатия : С потерями
Размер потока : 132 Мбайт (6%)
Заголовок : AVO, Ю.Сербин, DVD
Язык : Russian
Default : Нет
Forced : Нет
Аудио #3
Идентификатор : 4
Формат : AC-3
Формат/Информация : Audio Coding 3
Расширение режима : CM (complete main)
Параметр Endianness формата : Big
Идентификатор кодека : A_AC3
Продолжительность : 1 ч. 36 м.
Вид битрейта : Постоянный
Битрейт : 448 Кбит/сек
Каналы : 6 каналов
Расположение каналов : Front: L C R, Side: L R, LFE
Частота : 48,0 КГц
Битовая глубина : 16 бит
Метод сжатия : С потерями
Размер потока : 309 Мбайт (14%)
Заголовок : Original
Язык : German
Default : Да
Forced : Нет
Текст #1
Идентификатор : 5
Формат : PGS
Режим смешивания : zlib
Идентификатор кодека : S_HDMV/PGS
Идентификатор кодека/Информация : The same subtitle format used on BDs/HD-DVDs
Заголовок : Russian (DVD)
Язык : Russian
Default : Да
Forced : Нет
Текст #2
Идентификатор : 6
Формат : PGS
Режим смешивания : zlib
Идентификатор кодека : S_HDMV/PGS
Идентификатор кодека/Информация : The same subtitle format used on BDs/HD-DVDs
Язык : German
Default : Нет
Forced : Нет

Скриншот c названием фильма

Скриншоты

[Профиль] [ЛС]

Создавать темы 06-Авг-2015 23:10 (спустя 11 месяцев 22 дня)

Топик был перенесен из форума Фильмы до 2014 года в форум Фильмы до 2012 года
sergej644
 
Кто просматривает тему:

Форум Тема Автор Размер
Приключения, Квесты, Логические 9 Улик 2: Безумие / 9 Clues 2: The Ward (2014) PC достали все 991 MB
Фильмы (HD Rips | 720p, 1080p) Безумная свадьба / Qu'est-ce qu'on a fait au Bon Dieu? (2014) BDRip 720p | Лицензия sergej644 4.63 GB
Фильмы 2014 года Безумная свадьба / Qu'est-ce qu'on a fait au Bon Dieu? (2014) BDRip-AVC | Лицензия sergej644 1.86 GB
Фильмы (HD DVD, Blu-ray и BDRemux) Безумная свадьба / Qu'est-ce qu'on a fait au Bon Dieu? (2014) Blu-Ray | Rus Transfer | Лицензия Russian Mafia 19.28 GB
Фильмы 2014 года Безумная свадьба / Qu'est-ce qu'on a fait au Bon Dieu? (Филипп де Шоврон) [2014 г., Комедия, HDRip] BOSS 1.46 GB
Фильмы (HD Rips | 720p, 1080p) Безумное свидание / Date Night (2010) BDRip 720p | Театральная версия sergej644 3.23 GB
Фильмы 2010 года Безумное свидание / Date Night (Шон Леви / Shawn Levy) [2010, США, комедия, мелодрама, криминал, BDRip] [Theatrical Cut] Dub + Original Eng + Sub Rus, Eng reversefile 1.73 GB
Фильмы 2010 года Безумное свидание / Date Night (Шон Леви / Shawn Levy) [2010, США, комедия, мелодрама, криминал, HDTVRip] [Open Matte] MVO (1 канал) TorrentFilm 1.37 GB
Показать сообщения:    

Текущее время: Сегодня 16:58

Часовой пояс: GMT



Вы не можете начинать темы
Вы не можете отвечать на сообщения
Вы не можете редактировать свои сообщения
Вы не можете удалять свои сообщения
Вы не можете голосовать в опросах
Вы не можете прикреплять файлы к сообщениям
Вы не можете скачивать файлы