Безумцы из Скотланд-ярда / Neues vom Wixxer (Сирил Босс, Филипп Штеннерт / Cyrill Boss, Philipp Stennert) [2007, Германия, комедия, криминал, детектив, BDRip] Dub + AVO (Ю.Сербин) + Original Ger

 
Автор Сообщение

painkiller ®

Стаж: 2 года 3 месяца

Сообщений: 582



Награды: Нет

Торрент-статистика

Создавать темы 15-Авг-2014 10:17

[Цитировать]

Безумцы из Скотланд-ярда / Neues vom Wixxer- Страна: Германия
Жанр: комедия, криминал, детектив
Год выпуска: 2007
Продолжительность: 01:37:30
Перевод 1: Профессиональный (дублированный)
Перевод 2: Авторский (одноголосый закадровый) Ю.Сербин
Cубтитры: нет
Оригинальная аудиодорожка: немецкий
Режиссер: Сирил Босс, Филипп Штеннерт / Cyrill Boss, Philipp Stennert
В ролях: Оливер Калкофе, Бастиан Пастевка, Йоахим Фуксбергер, Кристиана Пауль, Кристоф Мария Хербст, Вольфганг Вёльц, Соня Кирхбергер, Юди Винтер, Кристиан Трамиц, Оливер Велке
Описание: Инспекторы Вери Мачо и Вери Мач, гоняются по всему Лондону за неуемным убийцей, который сеет в городе страх и ведет себя вызывающе нагло, устраивая побоище даже в кабинете главы Скотланд-Ярда. Темной-темной ночью на городском кладбище детективы обнаруживают семь свежевырытых могил с надгробными памятниками, на одном из них — имя Вери Мача, на другом — Виктории, любимой девушки его напарника. Им и еще пяти жертвам осталось жить сутки — гласит послание уверенного в своей безнаказанности злодея…
Сэмпл: http://multi-up.com/957778
Качество видео: BDRip (Neues.vom.Wixxer.2007.1080p.BDRemux.2xRus.3xGer.HDCLUB)
Формат видео: AVI
Видео: 720x304 (2.35:1), 23.976 fps, XviD MPEG-4 ~1918 kbps avg, 0.365 bit/pixel
Аудио 1: 48 kHz, AC3 Dolby Digital, 3/2 (L,C,R,l,r) + LFE ch, ~448 kbps - Дубляж
Аудио 2: 48 kHz, AC3 Dolby Digital, 2/0 (L,R) ch, ~192 kbps - Авторский (одноголосый закадровый) Ю.Сербин
Аудио 3: 48 kHz, AC3 Dolby Digital, 3/2 (L,C,R,l,r) + LFE ch, ~448 kbps - Оригинал (Немецкий)
&

MediaInfo

Общее
Полное имя : D:\Рипы\Neues.vom.Wixxer.2007.BDRip.2xRus.Ger.avi
Формат : AVI
Формат/Информация : Audio Video Interleave
Профиль формата : OpenDML
Размер файла : 2,06 Гбайт
Продолжительность : 1 ч. 37 м.
Общий поток : 3031 Кбит/сек
Название фильма : Neues.vom.Wixxer.2007.BDRip.2xRus.Ger
Режиссёр : rip by maygli
Программа кодирования : VirtualDubModRus 1.5.10.2 (build 2542/release)
Правообладатель : ... (RG Rulya74)
Видео
Идентификатор : 0
Формат : MPEG-4 Visual
Профиль формата : Advanced Simple@L5
Параметр BVOP формата : 1
Параметр QPel формата : Нет
Параметр GMC формата : Без точки перехода
Параметр матрицы формата : Выборочная
Идентификатор кодека : XVID
Идентификатор кодека/Подсказка : XviD
Продолжительность : 1 ч. 37 м.
Битрейт : 1918 Кбит/сек
Ширина : 720 пикселей
Высота : 304 пикселя
Соотношение сторон : 2,35:1
Частота кадров : 23,976 кадра/сек
Цветовое пространство : YUV
Субдискретизация насыщенности : 4:2:0
Битовая глубина : 8 бит
Тип развёртки : Прогрессивная
Метод сжатия : С потерями
Бит/(Пиксели*Кадры) : 0.365
Размер потока : 1,31 Гбайт (63%)
Библиотека кодирования : XviD 65
Аудио #1
Идентификатор : 1
Формат : AC-3
Формат/Информация : Audio Coding 3
Расширение режима : CM (complete main)
Параметр Endianness формата : Big
Идентификатор кодека : 2000
Продолжительность : 1 ч. 37 м.
Вид битрейта : Постоянный
Битрейт : 448 Кбит/сек
Каналы : 6 каналов
Расположение каналов : Front: L C R, Side: L R, LFE
Частота : 48,0 КГц
Битовая глубина : 16 бит
Метод сжатия : С потерями
Размер потока : 312 Мбайт (15%)
Выравнивание : Разделение по промежуткам
Продолжительность промежутка : 42 мс. (1,00 видеокадр)
Время предзагрузки промежутка : 500 мс.
Заголовок : Дубляж
Аудио #2
Идентификатор : 2
Формат : AC-3
Формат/Информация : Audio Coding 3
Расширение режима : CM (complete main)
Параметр Endianness формата : Big
Идентификатор кодека : 2000
Продолжительность : 1 ч. 37 м.
Вид битрейта : Постоянный
Битрейт : 192 Кбит/сек
Каналы : 2 канала
Расположение каналов : Front: L R
Частота : 48,0 КГц
Битовая глубина : 16 бит
Метод сжатия : С потерями
Размер потока : 134 Мбайт (6%)
Выравнивание : Разделение по промежуткам
Продолжительность промежутка : 42 мс. (1,00 видеокадр)
Время предзагрузки промежутка : 500 мс.
Заголовок : Авторский (одноголосый закадровый) Ю.Сербин
Аудио #3
Идентификатор : 3
Формат : AC-3
Формат/Информация : Audio Coding 3
Расширение режима : CM (complete main)
Параметр Endianness формата : Big
Идентификатор кодека : 2000
Продолжительность : 1 ч. 37 м.
Вид битрейта : Постоянный
Битрейт : 448 Кбит/сек
Каналы : 6 каналов
Расположение каналов : Front: L C R, Side: L R, LFE
Частота : 48,0 КГц
Битовая глубина : 16 бит
Метод сжатия : С потерями
Размер потока : 312 Мбайт (15%)
Выравнивание : Разделение по промежуткам
Продолжительность промежутка : 42 мс. (1,00 видеокадр)
Время предзагрузки промежутка : 500 мс.
Заголовок : Оригинал (Немецкий)

Скриншот c названием фильма

Скриншоты

[Профиль] [ЛС]

Создавать темы 06-Авг-2015 23:10 (спустя 11 месяцев 22 дня)

Топик был перенесен из форума Фильмы до 2014 года в форум Фильмы до 2012 года
sergej644
 
Кто просматривает тему:

Форум Тема Автор Размер
Приключения, Квесты, Логические 9 Улик 2: Безумие / 9 Clues 2: The Ward (2014) PC достали все 991 MB
Фильмы (HD Rips | 720p, 1080p) Безумная свадьба / Qu'est-ce qu'on a fait au Bon Dieu? (2014) BDRip 720p | Лицензия sergej644 4.63 GB
Фильмы 2014 года Безумная свадьба / Qu'est-ce qu'on a fait au Bon Dieu? (2014) BDRip-AVC | Лицензия sergej644 1.86 GB
Фильмы (HD DVD, Blu-ray и BDRemux) Безумная свадьба / Qu'est-ce qu'on a fait au Bon Dieu? (2014) Blu-Ray | Rus Transfer | Лицензия Russian Mafia 19.28 GB
Фильмы 2014 года Безумная свадьба / Qu'est-ce qu'on a fait au Bon Dieu? (Филипп де Шоврон) [2014 г., Комедия, HDRip] BOSS 1.46 GB
Фильмы (HD Rips | 720p, 1080p) Безумное свидание / Date Night (2010) BDRip 720p | Театральная версия sergej644 3.23 GB
Фильмы 2010 года Безумное свидание / Date Night (Шон Леви / Shawn Levy) [2010, США, комедия, мелодрама, криминал, BDRip] [Theatrical Cut] Dub + Original Eng + Sub Rus, Eng reversefile 1.73 GB
Фильмы 2010 года Безумное свидание / Date Night (Шон Леви / Shawn Levy) [2010, США, комедия, мелодрама, криминал, HDTVRip] [Open Matte] MVO (1 канал) TorrentFilm 1.37 GB
Показать сообщения:    

Текущее время: Сегодня 12:33

Часовой пояс: GMT



Вы не можете начинать темы
Вы не можете отвечать на сообщения
Вы не можете редактировать свои сообщения
Вы не можете удалять свои сообщения
Вы не можете голосовать в опросах
Вы не можете прикреплять файлы к сообщениям
Вы не можете скачивать файлы