Безумный спецназ / The Men Who Stare at Goats (2009) BDRip 1080p от NNNB

 
Автор Сообщение

sergej644 ®

Пол:

Стаж: 4 года 11 месяцев

Сообщений: 6038

Откуда: Soviet Union



Награды: Нет

Торрент-статистика

Создавать темы 26-Фев-2015 21:25

[Цитировать]

Безумный спецназ / The Men Who Stare at Goats
«Они сражают взглядом»
Русское название: Безумный спецназ
Оригинальное название: The Men Who Stare at Goats
Год выпуска: 2009
Жанр: комедия, приключения, военный
Выпущено: США, Великобритания
Режиссер: Грант Хеслов / Grant Heslov
В ролях: Джордж Клуни , Юэн МакГрегор , Джефф Бриджес , Кевин Спейси , Стивен Лэнг , Роберт Патрик , Валид Цайтер , Стивен Рут , Гленн Моршауэр , Ник Офферман , Тим Гриффин , Ребекка Мэдер
Перевод: Дублированный - [Лицензия]

Сюжет фильма:
Экранизация одноименной книги британского журналиста Джона Ронсона, посвященной людям с паранормальными способностями, состоящим на службе в Армии США. Главный герой, офицер спецподразделения Лин Кэссиди, выполняет сверхсекретное задание, о котором ничего неизвестно даже армии США. Газетный репортер Боб Уилтон следует по пятам за Лином, пытаясь разузнать о его миссии...

R - Лицам до 17 лет обязательно присутствие взрослого

Знаете ли вы, что...

В фильме бойцов с паранормальными способностями называют джедаями. Юэн МакГрегор, исполняющий роль Боба Уилтона, играл джедая Оби Ван Кеноби в трилогии-приквеле «Звездных войн».
Качество: BDRip 1080p (исходник Blu-ray)
Формат: AVC (библиотека кодирования x.264)
Контейнер (Расширение): MKV
Видео: 1916x1080 (16:9), 10595 Кбит/сек, 23,976 кадр/сек, 0,214 Бит/[Пиксели*Кадры]
Аудио №1: русский / AC3 / 5.1 / 48 kHz / 640 kbps / |Дублированный|
Аудио №2: английский / AC3 / 5.1 / 48 kHz / 640 kbps /
Продолжительность: 01:33:32

MediaInfo

Format : Matroska
Format version : Version 2
File size : 7.75 GiB
Duration : 1h 33mn
Overall bit rate : 11.9 Mbps
Movie name : Безумный спецназ.(2009).BDRip.1080p.[denis100]
Encoded date : UTC 2015-02-20 09:24:15
Writing application : mkvmerge v5.8.0 ('No Sleep / Pillow') built on Sep 2 2012 15:37:04
Writing library : libebml v1.2.3 + libmatroska v1.3.0
Video
ID : 1
Format : AVC
Format/Info : Advanced Video Codec
Format profile : High@L4.1
Format settings, CABAC : Yes
Format settings, ReFrames : 4 frames
Codec ID : V_MPEG4/ISO/AVC
Duration : 1h 33mn
Bit rate : 10.6 Mbps
Width : 1 916 pixels
Height : 1 080 pixels
Display aspect ratio : 16:9
Frame rate : 23.976 fps
Color space : YUV
Chroma subsampling : 4:2:0
Bit depth : 8 bits
Scan type : Progressive
Bits/(Pixel*Frame) : 0.214
Stream size : 6.76 GiB (87%)
Title : Безумный спецназ.(2009).BDRip.1080p.[denis100]
Writing library : x264 core 144 r2525 40bb568
Encoding settings : cabac=1 / ref=4 / deblock=1:-3:-3 / analyse=0x3:0x133 / me=umh / subme=11 / psy=1 / psy_rd=1.00:0.00 / mixed_ref=1 / me_range=32 / chroma_me=1 / trellis=2 / 8x8dct=1 / cqm=0 / deadzone=21,11 / fast_pskip=0 / chroma_qp_offset=-2 / threads=6 / lookahead_threads=1 / sliced_threads=0 / nr=0 / decimate=1 / interlaced=0 / bluray_compat=0 / constrained_intra=0 / bframes=8 / b_pyramid=2 / b_adapt=2 / b_bias=0 / direct=3 / weightb=1 / open_gop=0 / weightp=2 / keyint=240 / keyint_min=23 / scenecut=40 / intra_refresh=0 / rc=2pass / mbtree=0 / bitrate=10595 / ratetol=1.0 / qcomp=0.60 / qpmin=0 / qpmax=69 / qpstep=4 / cplxblur=20.0 / qblur=0.5 / ip_ratio=1.40 / pb_ratio=1.30 / aq=1:1.00
Language : English
Default : Yes
Forced : No
Audio #1
ID : 2
Format : AC-3
Format/Info : Audio Coding 3
Mode extension : CM (complete main)
Codec ID : A_AC3
Duration : 1h 33mn
Bit rate mode : Constant
Bit rate : 640 Kbps
Channel(s) : 6 channels
Channel positions : Front: L C R, Side: L R, LFE
Sampling rate : 48.0 KHz
Bit depth : 16 bits
Compression mode : Lossy
Stream size : 428 MiB (5%)
Title : Дублированный
Language : Russian
Default : Yes
Forced : No
Audio #2
ID : 3
Format : AC-3
Format/Info : Audio Coding 3
Mode extension : CM (complete main)
Codec ID : A_AC3
Duration : 1h 33mn
Bit rate mode : Constant
Bit rate : 640 Kbps
Channel(s) : 6 channels
Channel positions : Front: L C R, Side: L R, LFE
Sampling rate : 48.0 KHz
Bit depth : 16 bits
Compression mode : Lossy
Stream size : 428 MiB (5%)
Title : English
Language : English
Default : No
Forced : No
Menu
00:00:00.000 : en:00:00:00.000
00:07:54.265 : en:00:07:54.265
00:11:33.192 : en:00:11:33.192
00:16:03.171 : en:00:16:03.171
00:23:27.156 : en:00:23:27.156
00:28:47.142 : en:00:28:47.142
00:34:34.364 : en:00:34:34.364
00:38:30.642 : en:00:38:30.642
00:42:38.890 : en:00:42:38.890
00:51:56.739 : en:00:51:56.739
00:57:15.015 : en:00:57:15.015
01:01:44.367 : en:01:01:44.367
01:05:48.069 : en:01:05:48.069
01:09:36.714 : en:01:09:36.714
01:19:12.498 : en:01:19:12.498
01:28:10.577 : en:01:28:10.577

x264

x264 [info]: frame I:968 Avg QP:13.50 size:192113
x264 [info]: frame P:32332 Avg QP:15.37 size: 80100
x264 [info]: frame B:101273 Avg QP:17.60 size: 45921

Скриншоты

[Профиль] [ЛС]
Кто просматривает тему:

Форум Тема Автор Размер
Приключения, Квесты, Логические 9 Улик 2: Безумие / 9 Clues 2: The Ward (2014) PC достали все 991 MB
Фильмы (HD Rips | 720p, 1080p) Безумная свадьба / Qu'est-ce qu'on a fait au Bon Dieu? (2014) BDRip 720p | Лицензия sergej644 4.63 GB
Фильмы 2014 года Безумная свадьба / Qu'est-ce qu'on a fait au Bon Dieu? (2014) BDRip-AVC | Лицензия sergej644 1.86 GB
Фильмы (HD DVD, Blu-ray и BDRemux) Безумная свадьба / Qu'est-ce qu'on a fait au Bon Dieu? (2014) Blu-Ray | Rus Transfer | Лицензия Russian Mafia 19.28 GB
Фильмы 2014 года Безумная свадьба / Qu'est-ce qu'on a fait au Bon Dieu? (Филипп де Шоврон) [2014 г., Комедия, HDRip] BOSS 1.46 GB
Фильмы (HD Rips | 720p, 1080p) Безумное свидание / Date Night (2010) BDRip 720p | Театральная версия sergej644 3.23 GB
Фильмы 2010 года Безумное свидание / Date Night (Шон Леви / Shawn Levy) [2010, США, комедия, мелодрама, криминал, BDRip] [Theatrical Cut] Dub + Original Eng + Sub Rus, Eng reversefile 1.73 GB
Фильмы 2010 года Безумное свидание / Date Night (Шон Леви / Shawn Levy) [2010, США, комедия, мелодрама, криминал, HDTVRip] [Open Matte] MVO (1 канал) TorrentFilm 1.37 GB
Показать сообщения:    

Текущее время: Сегодня 04:15

Часовой пояс: GMT



Вы не можете начинать темы
Вы не можете отвечать на сообщения
Вы не можете редактировать свои сообщения
Вы не можете удалять свои сообщения
Вы не можете голосовать в опросах
Вы не можете прикреплять файлы к сообщениям
Вы не можете скачивать файлы