Безумный Макс: Дорога ярости / Mad Max: Fury Road (Джордж Миллер / George Miller) [2015, Австралия, США, боевик, фантастика, приключения, WEB-DLRip] Dub

 
Автор Сообщение

TorrentFilm ®

Пол:

Стаж: 2 года

Сообщений: 7741



Награды: Нет

Торрент-статистика

Создавать темы 15-Авг-2015 00:07

[Цитировать]

Безумный Макс: Дорога ярости / Mad Max: Fury Road
Страна: Австралия, США
Жанр: Боевик, фантастика, приключения
Год выпуска: 2015
Продолжительность: 02:00:21
Перевод: Профессиональный (дублированный)
Cубтитры: нет
Режиссер: Джордж Миллер / George Miller
В ролях: Том Харди, Шарлиз Терон, Николас Холт, Хью Кияс-Бёрн, Райли Кио, Роузи Хантингтон-Уайтли, Зои Кравиц, Эбби Ли, Кортни Итон, Нэйтан Джонс
Описание: Преследуемый призраками беспокойного прошлого, Макс уверен, что лучший способ выжить — скитаться в одиночестве. Несмотря на это, он присоединяется к бунтарям, бегущим через всю пустыню на боевой фуре, под предводительством военачальника Фуриосы.
Они пытаются сбежать из Цитадели, страдающей от тирании Несмертного Джо, у которого они забрали кое-что очень ценное. Разъярённый военачальник бросает все свои силы на погоню за мятежниками, ступая на дорогу войны — дорогу ярости.
Сэмпл: http://sendfile.su/1145668
Качество видео: WEB-DLRip
Формат видео: AVI
Видео: 720x304 (2.37:1), 23.976 fps, XviD build 73 ~2197 kbps, 0.42 bit/pixel
Аудио: 48 kHz, AC3 Dolby Digital, 3/2 (L,C,R,l,r) + LFE ch, ~384 kbps

MediaInfo

Format : AVI
Format/Info : Audio Video Interleave
Format profile : OpenDML
File size : 2.18 GiB
Duration : 2h 0mn
Overall bit rate : 2 588 Kbps
Writing application : VirtualDubMod 1.5.10.2 (build 2540/release)
Writing library : VirtualDubMod build 2540/release
Video
ID : 0
Format : MPEG-4 Visual
Format profile : Advanced Simple@L5
Format settings, BVOP : 1
Format settings, QPel : No
Format settings, GMC : No warppoints
Format settings, Matrix : Custom
Codec ID : XVID
Codec ID/Hint : XviD
Duration : 2h 0mn
Bit rate : 2 193 Kbps
Width : 720 pixels
Height : 304 pixels
Display aspect ratio : 2.35:1
Frame rate : 23.976 fps
Color space : YUV
Chroma subsampling : 4:2:0
Bit depth : 8 bits
Scan type : Progressive
Compression mode : Lossy
Bits/(Pixel*Frame) : 0.418
Stream size : 1.84 GiB (85%)
Writing library : XviD 73
Audio
ID : 1
Format : AC-3
Format/Info : Audio Coding 3
Mode extension : CM (complete main)
Format settings, Endianness : Big
Codec ID : 2000
Duration : 2h 0mn
Bit rate mode : Constant
Bit rate : 384 Kbps
Channel(s) : 6 channels
Channel positions : Front: L C R, Side: L R, LFE
Sampling rate : 48.0 KHz
Bit depth : 16 bits
Compression mode : Lossy
Stream size : 331 MiB (15%)
Alignment : Aligned on interleaves
Interleave, duration : 42 ms (1.00 video frame)
Interleave, preload duration : 512 ms

Скриншот c названием фильма

Скриншоты




[Профиль] [ЛС]
Кто просматривает тему:

Форум Тема Автор Размер
Приключения, Квесты, Логические 9 Улик 2: Безумие / 9 Clues 2: The Ward (2014) PC достали все 991 MB
Фильмы (HD Rips | 720p, 1080p) Безумная свадьба / Qu'est-ce qu'on a fait au Bon Dieu? (2014) BDRip 720p | Лицензия sergej644 4.63 GB
Фильмы 2014 года Безумная свадьба / Qu'est-ce qu'on a fait au Bon Dieu? (2014) BDRip-AVC | Лицензия sergej644 1.86 GB
Фильмы (HD DVD, Blu-ray и BDRemux) Безумная свадьба / Qu'est-ce qu'on a fait au Bon Dieu? (2014) Blu-Ray | Rus Transfer | Лицензия Russian Mafia 19.28 GB
Фильмы 2014 года Безумная свадьба / Qu'est-ce qu'on a fait au Bon Dieu? (Филипп де Шоврон) [2014 г., Комедия, HDRip] BOSS 1.46 GB
Фильмы (HD Rips | 720p, 1080p) Безумное свидание / Date Night (2010) BDRip 720p | Театральная версия sergej644 3.23 GB
Фильмы 2010 года Безумное свидание / Date Night (Шон Леви / Shawn Levy) [2010, США, комедия, мелодрама, криминал, BDRip] [Theatrical Cut] Dub + Original Eng + Sub Rus, Eng reversefile 1.73 GB
Фильмы 2010 года Безумное свидание / Date Night (Шон Леви / Shawn Levy) [2010, США, комедия, мелодрама, криминал, HDTVRip] [Open Matte] MVO (1 канал) TorrentFilm 1.37 GB
Показать сообщения:    

Текущее время: Сегодня 18:30

Часовой пояс: GMT



Вы не можете начинать темы
Вы не можете отвечать на сообщения
Вы не можете редактировать свои сообщения
Вы не можете удалять свои сообщения
Вы не можете голосовать в опросах
Вы не можете прикреплять файлы к сообщениям
Вы не можете скачивать файлы