Безумные деньги / Funny Money (Лесли Грейф / Leslie Greif) [2006, США, Румыния, Германия, Комедия, BDRip] MVO

 
Автор Сообщение

TorrentFilm ®

Пол:

Стаж: 2 года

Сообщений: 7741



Награды: Нет

Торрент-статистика

Создавать темы 28-Апр-2015 00:04

[Цитировать]

Безумные деньги / Funny Money
Страна: США, Румыния, Германия
Жанр: Комедия
Год выпуска: 2006
Продолжительность: 01:33:43
Перевод: Профессиональный (многоголосый закадровый)
Cубтитры: нет
Режиссер: Лесли Грейф / Leslie Greif
В ролях: Чеви Чейз, Пенелопа Энн Миллер, Арманд Ассанте, Кристофер МакДональд, Роберт Лоджа, Гай Торри, Ребекка Високки, Кевин Суссман, Алекс Менесес, Марти Белафски, Марко Ассанте, Гарри Бейзил, Золтан Бутуч, Мэтт Де Мэтт, Пэт Финн, Кэри Глиберман, Джоэнн Рубино, Тимоти Стэк
Описание: По произведению Рэй Куни. Скромный бухгалтер Генри Перкинс и один из террористов случайно меняются в метро кейсами.В кейсе 1 млн $. То есть можно больше не ходить на скучную работу и отправиться в заветное путешествие. Генри уже мечтает о новой жизни, но у него день рождения, гости уже приглашены, к тому же его начинают разыскивать террористы, достает нечистый на руку детектив и молодой полицейский пришел сообщить о его кончине... Всем требуются объяснения, которые приходится придумывать на ходу. И деньги привносят свою долю безумия в ранее спокойную и размеренную жизнь...
Доп. информация: РЕЛИЗ = MediaClub = rip by Painter
Сэмпл: https://yadi.sk/i/l5C85XgLgGLXJ
Качество видео: BDRip [BDRemux 1080i]
Формат видео: AVI
Видео: 688x384 (1.79:1), 25 fps, XviD build 73 ~1754 kbps avg, 0.27 bit/pixel
Аудио: 48 kHz, AC3 Dolby Digital, 3/2 (L,C,R,l,r) + LFE ch, ~448 kbps

MediaInfo

Безумные деньги - Funny Money.avi
Format : AVI
Format/Info : Audio Video Interleave
File size : 1.45 GiB
Duration : 1h 33mn
Overall bit rate : 2 213 Kbps
Movie name : = MediaClub = rip by Painter
Writing application : VirtualDubMod 1.5.10.2 (build 2540/release)
Writing library : VirtualDubMod build 2540/release
Video
ID : 0
Format : MPEG-4 Visual
Format profile : Advanced Simple@L5
Format settings, BVOP : 1
Format settings, QPel : No
Format settings, GMC : No warppoints
Format settings, Matrix : Custom
Codec ID : XVID
Codec ID/Hint : XviD
Duration : 1h 33mn
Bit rate : 1 755 Kbps
Width : 688 pixels
Height : 384 pixels
Display aspect ratio : 16:9
Frame rate : 25.000 fps
Color space : YUV
Chroma subsampling : 4:2:0
Bit depth : 8 bits
Scan type : Progressive
Compression mode : Lossy
Bits/(Pixel*Frame) : 0.266
Stream size : 1.15 GiB (79%)
Writing library : XviD 73
Audio
ID : 1
Format : AC-3
Format/Info : Audio Coding 3
Mode extension : CM (complete main)
Format settings, Endianness : Big
Codec ID : 2000
Duration : 1h 33mn
Bit rate mode : Constant
Bit rate : 448 Kbps
Channel(s) : 6 channels
Channel positions : Front: L C R, Side: L R, LFE
Sampling rate : 48.0 KHz
Bit depth : 16 bits
Compression mode : Lossy
Stream size : 300 MiB (20%)
Alignment : Split accross interleaves
Interleave, duration : 40 ms (1.00 video frame)
Interleave, preload duration : 500 ms

Скриншоты


[Профиль] [ЛС]

Создавать темы 06-Авг-2015 22:35 (спустя 3 месяца 8 дней)

Топик был перенесен из форума Фильмы до 2014 года в форум Фильмы до 2012 года
sergej644
 
Кто просматривает тему:

Форум Тема Автор Размер
Приключения, Квесты, Логические 9 Улик 2: Безумие / 9 Clues 2: The Ward (2014) PC достали все 991 MB
Фильмы (HD Rips | 720p, 1080p) Безумная свадьба / Qu'est-ce qu'on a fait au Bon Dieu? (2014) BDRip 720p | Лицензия sergej644 4.63 GB
Фильмы 2014 года Безумная свадьба / Qu'est-ce qu'on a fait au Bon Dieu? (2014) BDRip-AVC | Лицензия sergej644 1.86 GB
Фильмы (HD DVD, Blu-ray и BDRemux) Безумная свадьба / Qu'est-ce qu'on a fait au Bon Dieu? (2014) Blu-Ray | Rus Transfer | Лицензия Russian Mafia 19.28 GB
Фильмы 2014 года Безумная свадьба / Qu'est-ce qu'on a fait au Bon Dieu? (Филипп де Шоврон) [2014 г., Комедия, HDRip] BOSS 1.46 GB
Фильмы (HD Rips | 720p, 1080p) Безумное свидание / Date Night (2010) BDRip 720p | Театральная версия sergej644 3.23 GB
Фильмы 2010 года Безумное свидание / Date Night (Шон Леви / Shawn Levy) [2010, США, комедия, мелодрама, криминал, BDRip] [Theatrical Cut] Dub + Original Eng + Sub Rus, Eng reversefile 1.73 GB
Фильмы 2010 года Безумное свидание / Date Night (Шон Леви / Shawn Levy) [2010, США, комедия, мелодрама, криминал, HDTVRip] [Open Matte] MVO (1 канал) TorrentFilm 1.37 GB
Показать сообщения:    

Текущее время: Сегодня 15:45

Часовой пояс: GMT



Вы не можете начинать темы
Вы не можете отвечать на сообщения
Вы не можете редактировать свои сообщения
Вы не можете удалять свои сообщения
Вы не можете голосовать в опросах
Вы не можете прикреплять файлы к сообщениям
Вы не можете скачивать файлы