Безумно верная жена / Committed (2000) BDRip 1080p | P2

 
Автор Сообщение

BOSS ®

Пол:

Стаж: 4 года 1 месяц

Сообщений: 12406

Откуда: ODESSA



Награды: 22 (Подробнее)

Mega Seeder 4 (Количество: 1) Top Seeder 2 (Количество: 1) За внесенный вклад в развитие сайта (Количество: 1)
Торрент-статистика

Создавать темы 15-Окт-2018 09:28

[Цитировать]

Название: Безумно верная жена
Оригинальное название: Committed
Год выхода: 2000
Страна: США
Студия: Miramax
Продолжительность: 01:37:51
Жанр: драма, комедия
Режиссер: Лиза Крюгер
В ролях: Хизер Грэм, Кейси Аффлек, Люк Уилсон, Горан Вишнич, Патрисия Веласкес, Альфонсо Арау, Марк Руффало, Ким Диккенс, Клеа ДюВалл, Саммер Феникс, ...
Перевод: профессиональный (двуголосый, закадровый) R5 от «Videogram»
О фильме: Существует несколько способов вернуть сбежавшего мужа. Среди них есть мягкие, хитрые, отчаянные и жестокие…Когда Карл исчез в неизвестном направлении, удивленная Джолин не сомневалась, что может спасти их брак!
Она была уверена, что сделает это! Что найдет Карла, где бы он ни был и вернет. Но пока еще не знала — как…

Кодек: x264
Качество: BDRip 1080p
Видео: 1920x1040, 8086 kbps, 23,976 fps
Аудио #1: AC-3, 6 ch, 384 kbps (Rus) - DVO R5 «Videogram»
Аудио #2: DTS, 2 ch, 1509 kbps (Eng)
Субтитры: английские

MediaInfo

Общее
Уникальный идентификатор : 253843286139668485156786678372890591125 (0xBEF87047D08C751489D98ABC42B03F95)
Полное имя : Безумно верная жена (Committed) 2000 BDRip 1080p.mkv
Формат : Matroska
Версия формата : Version 2
Размер файла : 6,82 Гбайт
Продолжительность : 1 ч. 37 м.
Общий поток : 9975 Кбит/сек
Дата кодирования : UTC 2018-10-15 08:30:08
Программа кодирования : mkvmerge v4.0.0 ('The Stars were mine') сборка от Jun 6 2010 16:18:42
Библиотека кодирования : libebml v1.0.0 + libmatroska v1.0.0
Видео
Идентификатор : 1
Формат : AVC
Формат/Информация : Advanced Video Codec
Профиль формата : High@L4.1
Параметр CABAC формата : Да
Параметр ReFrames формата : 4 кадра
Идентификатор кодека : V_MPEG4/ISO/AVC
Продолжительность : 1 ч. 37 м.
Битрейт : 8086 Кбит/сек
Ширина : 1920 пикселей
Высота : 1040 пикселей
Соотношение сторон : 1,85:1
Режим частоты кадров : Постоянный
Частота кадров : 23,976 (24000/1001) кадра/сек
Цветовое пространство : YUV
Субдискретизация насыщенности : 4:2:0
Битовая глубина : 8 бит
Тип развёртки : Прогрессивная
Бит/(Пиксели*Кадры) : 0.169
Размер потока : 5,39 Гбайт (79%)
Библиотека кодирования : x264 core 142 r2479 dd79a61
Настройки программы : cabac=1 / ref=4 / deblock=1:0:0 / analyse=0x3:0x133 / me=umh / subme=8 / psy=1 / psy_rd=1.00:0.00 / mixed_ref=1 / me_range=16 / chroma_me=1 / trellis=1 / 8x8dct=1 / cqm=0 / deadzone=21,11 / fast_pskip=0 / chroma_qp_offset=-2 / threads=12 / lookahead_threads=2 / sliced_threads=0 / nr=0 / decimate=1 / interlaced=0 / bluray_compat=0 / constrained_intra=0 / bframes=3 / b_pyramid=2 / b_adapt=1 / b_bias=0 / direct=1 / weightb=1 / open_gop=0 / weightp=2 / keyint=250 / keyint_min=23 / scenecut=40 / intra_refresh=0 / rc_lookahead=40 / rc=2pass / mbtree=1 / bitrate=8086 / ratetol=1.0 / qcomp=0.60 / qpmin=0 / qpmax=69 / qpstep=4 / cplxblur=20.0 / qblur=0.5 / ip_ratio=1.40 / aq=1:1.00
Язык : English
Default : Нет
Forced : Нет
Аудио #1
Идентификатор : 2
Формат : AC-3
Формат/Информация : Audio Coding 3
Расширение режима : CM (complete main)
Параметр Endianness формата : Big
Идентификатор кодека : A_AC3
Продолжительность : 1 ч. 37 м.
Вид битрейта : Постоянный
Битрейт : 384 Кбит/сек
Каналы : 6 каналов
Расположение каналов : Front: L C R, Side: L R, LFE
Частота : 48,0 КГц
Частота кадров : 31,250 кадров/сек (1536 spf)
Метод сжатия : С потерями
Размер потока : 269 Мбайт (4%)
Заголовок : DVO R5 «Videogram»
Язык : Russian
Default : Нет
Forced : Нет
Аудио #2
Идентификатор : 3
Формат : DTS
Формат/Информация : Digital Theater Systems
Режим : 16
Параметр Endianness формата : Big
Идентификатор кодека : A_DTS
Продолжительность : 1 ч. 37 м.
Вид битрейта : Постоянный
Битрейт : 1509 Кбит/сек
Каналы : 2 канала
Расположение каналов : Front: L R
Частота : 48,0 КГц
Частота кадров : 93,750 кадра/сек (512 spf)
Битовая глубина : 24 бит
Метод сжатия : С потерями
Размер потока : 1,03 Гбайт (15%)
Язык : English
Default : Нет
Forced : Нет
Текст
Идентификатор : 4
Формат : UTF-8
Идентификатор кодека : S_TEXT/UTF8
Идентификатор кодека/Информация : UTF-8 Plain Text
Язык : English
Default : Нет
Forced : Нет
Меню
00:00:00.000 : en:00:00:00.000
00:09:49.714 : en:00:09:49.714
00:15:01.859 : en:00:15:01.859
00:23:31.243 : en:00:23:31.243
00:33:16.036 : en:00:33:16.036
00:40:09.407 : en:00:40:09.407
00:45:51.207 : en:00:45:51.207
00:54:11.415 : en:00:54:11.415
01:03:55.248 : en:01:03:55.248
01:12:05.696 : en:01:12:05.696
01:18:32.917 : en:01:18:32.917
01:29:42.544 : en:01:29:42.544

[Профиль] [ЛС]
Показать сообщения:    

Текущее время: Сегодня 03:04

Часовой пояс: GMT



Вы не можете начинать темы
Вы не можете отвечать на сообщения
Вы не можете редактировать свои сообщения
Вы не можете удалять свои сообщения
Вы не можете голосовать в опросах
Вы не можете прикреплять файлы к сообщениям
Вы не можете скачивать файлы