Безумное свидание / Date Night (Шон Леви / Shawn Levy) [2010, США, триллер, мелодрама, комедия, криминал, BDRip-AVC] [Extended Edition] Dub + Original (Eng) + Sub (Rus, Ukr, Eng)

 
Автор Сообщение

painkiller ®

Стаж: 2 года 3 месяца

Сообщений: 582



Награды: Нет

Торрент-статистика

Создавать темы 15-Авг-2014 10:17

[Цитировать]

Безумное свидание / Date Night«Не все свидания идут по плану»- Страна: США
Жанр: триллер, мелодрама, комедия, криминал
Год выпуска: 2010
Продолжительность: 01:41:36-Перевод: Профессиональный (дублированный) Blu-ray EUR
Оригинальная аудиодорожка: English
Cубтитры: Russian (forced+full), Ukrainian (full), English (forced+full) (*.srt)
Навигация по главам: Присутствует - (24 главы)-Режиссер: Шон Леви / Shawn Levy
В ролях: Стив Карелл, Тина Фей, Марк Уолберг, Тараджи П. Хенсон, Джимми Симпсон, Коммон, Уильям Фихтнер, Лейтон Мистер, Кристен Уиг, Марк Руффало-Описание: Скучную жизнь супругов Фостер должен разнообразить ужин в модном нью-йоркском ресторане. Так и получилось, ведь стоило им представиться чужими именами, чтобы получить столик без очереди и безумные приключения тут же начались. Приняв их за других, в бешеную гонку по городу за семейной четой пустились коррумпированные копы и городские гангстеры.-
Download sample-Качество видео: BDRip-AVC | исх. Безумное свидание / Date Night [Extended Edition] (2010) Blu-ray EUR 1080p AVC DTS 5.1
Формат видео: MKV-Видео: 1 120x476 (2.35:1), 23.976 fps, x264 ~3406 kbps avg, 0.260 bit/pixel
Аудио №1: 48 kHz, AC3, 3/2 (L,C,R,l,r) + LFE ch, ~448.00 kbps avg | Профессиональный (дублированный) Blu-ray EUR
Аудио №2: 48 kHz, AC3, 3/2 (L,C,R,l,r) + LFE ch, ~448.00 kbps avg | English-

MediaInfo

General
Unique ID : 202132916310579639851279662215825043054 (0x981162355F232531AB402C92ED25AE6E)
Complete name : D:\Фильмы\Рипы\Date.Night.2010.BDRip-AVC.by Fredd Kruger.mkv
Format : Matroska
Format version : Version 2
File size : 3.05 GiB
Duration : 1h 41mn
Overall bit rate : 4 305 Kbps
Movie name : Date Night (2010) - Release for rutracker by Fredd Kruger
Encoded date : UTC 2014-03-19 21:41:45
Writing application : mkvmerge v5.0.1 ('Es ist Sommer') built on Nov 6 2011 16:23:40
Writing library : libebml v1.2.2 + libmatroska v1.3.0
Attachment : Yes
Video
ID : 1
Format : AVC
Format/Info : Advanced Video Codec
Format profile : High@L4.1
Format settings, CABAC : Yes
Format settings, ReFrames : 15 frames
Codec ID : V_MPEG4/ISO/AVC
Duration : 1h 41mn
Bit rate : 3 323 Kbps
Width : 1 120 pixels
Height : 476 pixels
Display aspect ratio : 2.35:1
Frame rate mode : Constant
Frame rate : 23.976 fps
Color space : YUV
Chroma subsampling : 4:2:0
Bit depth : 8 bits
Scan type : Progressive
Bits/(Pixel*Frame) : 0.260
Stream size : 2.36 GiB (77%)
Title : Encode by Fredd Kruger
Writing library : x264 core 142 r2409kMod d6b4e63
Encoding settings : cabac=1 / ref=15 / deblock=1:-3:-3 / analyse=0x3:0x133 / me=umh / subme=11 / psy=1 / fade_compensate=0.00 / psy_rd=1.00:0.00 / mixed_ref=1 / me_range=48 / chroma_me=1 / trellis=2 / 8x8dct=1 / cqm=0 / deadzone=21,11 / fast_pskip=1 / chroma_qp_offset=-2 / threads=8 / lookahead_threads=2 / sliced_threads=0 / nr=0 / decimate=1 / interlaced=0 / bluray_compat=0 / constrained_intra=0 / fgo=0 / bframes=16 / b_pyramid=2 / b_adapt=2 / b_bias=0 / direct=3 / weightb=1 / open_gop=0 / weightp=2 / keyint=250 / keyint_min=23 / scenecut=40 / intra_refresh=0 / rc_lookahead=60 / rc=crf / mbtree=0 / crf=17.4000 / qcomp=0.60 / qpmin=0 / qpmax=69 / qpstep=4 / vbv_maxrate=50000 / vbv_bufsize=62500 / crf_max=0.0 / nal_hrd=none / filler=0 / ip_ratio=1.40 / pb_ratio=1.30 / aq=3:0.65
Default : Yes
Forced : No
Color primaries : BT.709
Transfer characteristics : BT.709
Matrix coefficients : BT.709
Audio #1
ID : 2
Format : AC-3
Format/Info : Audio Coding 3
Mode extension : CM (complete main)
Format settings, Endianness : Big
Codec ID : A_AC3
Duration : 1h 41mn
Bit rate mode : Constant
Bit rate : 448 Kbps
Channel count : 6 channels
Channel positions : Front: L C R, Side: L R, LFE
Sampling rate : 48.0 KHz
Bit depth : 16 bits
Compression mode : Lossy
Stream size : 326 MiB (10%)
Title : Dub (Blu-ray EUR)
Language : Russian
Default : Yes
Forced : No
Audio #2
ID : 3
Format : AC-3
Format/Info : Audio Coding 3
Mode extension : CM (complete main)
Format settings, Endianness : Big
Codec ID : A_AC3
Duration : 1h 41mn
Bit rate mode : Constant
Bit rate : 448 Kbps
Channel count : 6 channels
Channel positions : Front: L C R, Side: L R, LFE
Sampling rate : 48.0 KHz
Bit depth : 16 bits
Compression mode : Lossy
Stream size : 326 MiB (10%)
Language : English
Default : No
Forced : No
Text #1
ID : 4
Format : UTF-8
Codec ID : S_TEXT/UTF8
Codec ID/Info : UTF-8 Plain Text
Title : forced
Language : Russian
Default : Yes
Forced : No
Text #2
ID : 5
Format : UTF-8
Codec ID : S_TEXT/UTF8
Codec ID/Info : UTF-8 Plain Text
Title : full
Language : Russian
Default : No
Forced : No
Text #3
ID : 6
Format : UTF-8
Codec ID : S_TEXT/UTF8
Codec ID/Info : UTF-8 Plain Text
Title : full
Language : Ukrainian
Default : No
Forced : No
Text #4
ID : 7
Format : UTF-8
Codec ID : S_TEXT/UTF8
Codec ID/Info : UTF-8 Plain Text
Title : forced
Language : English
Default : No
Forced : No
Text #5
ID : 8
Format : UTF-8
Codec ID : S_TEXT/UTF8
Codec ID/Info : UTF-8 Plain Text
Title : full
Language : English
Default : No
Forced : No
Menu
00:00:00.000 : en:00:00:00.000
00:04:37.486 : en:00:04:37.486
00:09:02.792 : en:00:09:02.792
00:14:24.989 : en:00:14:24.989
00:18:36.574 : en:00:18:36.574
00:23:43.297 : en:00:23:43.297
00:29:07.162 : en:00:29:07.162
00:35:39.637 : en:00:35:39.637
00:38:58.503 : en:00:38:58.503
00:42:40.933 : en:00:42:40.933
00:45:29.393 : en:00:45:29.393
00:46:59.692 : en:00:46:59.692
00:51:48.605 : en:00:51:48.605
00:58:35.679 : en:00:58:35.679
01:07:14.072 : en:01:07:14.072
01:10:25.304 : en:01:10:25.304
01:15:17.638 : en:01:15:17.638
01:17:42.575 : en:01:17:42.575
01:19:50.661 : en:01:19:50.661
01:24:01.245 : en:01:24:01.245
01:29:00.126 : en:01:29:00.126
01:32:08.398 : en:01:32:08.398
01:34:31.916 : en:01:34:31.916
01:36:26.239 : en:01:36:26.239

x264 log

x264 [info]: frame I:1340 Avg QP:15.45 size: 73743 PSNR Mean Y:47.50 U:49.54 V:50.62 Avg:48.18 Global:47.87
x264 [info]: frame P:29082 Avg QP:17.31 size: 33877 PSNR Mean Y:46.04 U:48.27 V:49.50 Avg:46.77 Global:46.18
x264 [info]: frame B:115739 Avg QP:19.74 size: 13059 PSNR Mean Y:44.83 U:47.55 V:49.02 Avg:45.67 Global:45.08
x264 [info]: consecutive B-frames: 1.8% 1.6% 5.4% 14.7% 18.4% 45.1% 6.3% 1.6% 1.4% 1.2% 0.7% 0.3% 0.6% 0.6% 0.1% 0.2% 0.1%
x264 [info]: mb I I16..4: 6.1% 75.6% 18.3%
x264 [info]: mb P I16..4: 0.5% 12.9% 1.3% P16..4: 27.7% 35.0% 14.8% 2.2% 0.2% skip: 5.5%
x264 [info]: mb B I16..4: 0.0% 1.4% 0.1% B16..8: 36.9% 20.9% 4.5% direct: 5.9% skip:30.2% L0:44.9% L1:44.4% BI:10.7%
x264 [info]: 8x8 transform intra:86.2% inter:56.5%
x264 [info]: direct mvs spatial:100.0% temporal:0.0%
x264 [info]: coded y,uvDC,uvAC intra: 93.5% 92.4% 81.7% inter: 30.3% 25.6% 8.9%
x264 [info]: i16 v,h,dc,p: 24% 17% 7% 52%
x264 [info]: i8 v,h,dc,ddl,ddr,vr,hd,vl,hu: 8% 8% 9% 10% 14% 13% 13% 12% 13%
x264 [info]: i4 v,h,dc,ddl,ddr,vr,hd,vl,hu: 10% 8% 4% 10% 15% 14% 14% 11% 13%
x264 [info]: i8c dc,h,v,p: 46% 18% 16% 19%
x264 [info]: Weighted P-Frames: Y:4.2% UV:3.0%
x264 [info]: ref P L0: 41.5% 7.1% 17.7% 7.5% 6.1% 4.5% 3.9% 2.2% 1.9% 1.6% 1.5% 1.3% 1.2% 1.0% 1.1% 0.1%
x264 [info]: ref B L0: 64.5% 13.6% 7.3% 3.8% 2.7% 2.2% 1.7% 1.0% 0.8% 0.7% 0.6% 0.6% 0.3% 0.2%
x264 [info]: ref B L1: 90.5% 9.5%
x264 [info]: SSIM Mean Y:0.9783995 (16.655db)
x264 [info]: PSNR Mean Y:45.095 U:47.714 V:49.127 Avg:45.913 Global:45.297 kb/s:3406.09
x264 [total]: encoded 146161 frames, 10.71 fps, 3406.09 kb/s

Comparison

Source

Encode
[Профиль] [ЛС]

Создавать темы 06-Авг-2015 23:10 (спустя 11 месяцев 22 дня)

Топик был перенесен из форума Фильмы до 2014 года в форум Фильмы до 2012 года
sergej644
 

Создавать темы 12-Июн-2016 07:54 (спустя 1 год 9 месяцев)

Топик был перенесен из форума Фильмы 2011 года в форум Фильмы 2010 года
Russian Mafia
 
Кто просматривает тему:

Форум Тема Автор Размер
Приключения, Квесты, Логические 9 Улик 2: Безумие / 9 Clues 2: The Ward (2014) PC достали все 991 MB
Фильмы (HD Rips | 720p, 1080p) Безумная свадьба / Qu'est-ce qu'on a fait au Bon Dieu? (2014) BDRip 720p | Лицензия sergej644 4.63 GB
Фильмы 2014 года Безумная свадьба / Qu'est-ce qu'on a fait au Bon Dieu? (2014) BDRip-AVC | Лицензия sergej644 1.86 GB
Фильмы (HD DVD, Blu-ray и BDRemux) Безумная свадьба / Qu'est-ce qu'on a fait au Bon Dieu? (2014) Blu-Ray | Rus Transfer | Лицензия Russian Mafia 19.28 GB
Фильмы 2014 года Безумная свадьба / Qu'est-ce qu'on a fait au Bon Dieu? (Филипп де Шоврон) [2014 г., Комедия, HDRip] BOSS 1.46 GB
Фильмы (HD Rips | 720p, 1080p) Безумное свидание / Date Night (2010) BDRip 720p | Театральная версия sergej644 3.23 GB
Фильмы 2010 года Безумное свидание / Date Night (Шон Леви / Shawn Levy) [2010, США, комедия, мелодрама, криминал, BDRip] [Theatrical Cut] Dub + Original Eng + Sub Rus, Eng reversefile 1.73 GB
Фильмы 2010 года Безумное свидание / Date Night (Шон Леви / Shawn Levy) [2010, США, комедия, мелодрама, криминал, HDTVRip] [Open Matte] MVO (1 канал) TorrentFilm 1.37 GB
Показать сообщения:    

Текущее время: Сегодня 00:37

Часовой пояс: GMT



Вы не можете начинать темы
Вы не можете отвечать на сообщения
Вы не можете редактировать свои сообщения
Вы не можете удалять свои сообщения
Вы не можете голосовать в опросах
Вы не можете прикреплять файлы к сообщениям
Вы не можете скачивать файлы