Безумное свидание / Date Night (Шон Леви / Shawn Levy) [2010, США, комедия, мелодрама, криминал, BDRip] [Theatrical Cut] Dub + Original Eng + Sub Rus, Eng

 
Автор Сообщение

reversefile ®

Пол:

Стаж: 4 года 5 месяцев

Сообщений: 842

Откуда: ReverseFile.org



Награды: Нет

Торрент-статистика

Создавать темы 11-Авг-2014 10:44

[Цитировать]

Безумное свидание / Date Night / Theatrical Cut- Страна: США
Жанр: комедия, мелодрама, криминал
Год выпуска: 2010
Продолжительность: 01:27:48
Перевод: Профессиональный (дублированный)
Cубтитры: русские (форсированные, полные), английские (форсированные, полные)
Оригинальная аудиодорожка: английский-Режиссер: Шон Леви / Shawn Levy
В ролях: Стив Карелл, Тина Фей, Марк Уолберг, Тараджи П. Хенсон, Джимми Симпсон, Коммон, Уильям Фихтнер, Лейтон Мистер, Кристен Уиг, Марк Руффало.
Описание: Супруги Фил и Клэр Фостеры живут в Нью-Джерси, воспитывают двух очаровательных детей, однако их отношения зашли в глухой тупик, и их далеко нельзя назвать романтичными. Чтобы как-то разнообразить свою семейную жизнь, Фостеры решили отправиться на романтическое свидание и поужинать в ресторане. Однако свободных столиков не оказалось, и тогда супруги решили назваться чужими именами неявившихся Трипплхорнов, чтобы заполучить столик в ресторане. Во время трапезы к ним подошли двое мужчин и заявили, что новоявленные Трипплхорны должны их боссу кругленькую сумму денег. Приняв Фостеров за других, в настоящую погоню за супругами отправляются местные гангстеры и коррумпированные полисмены.-Качество видео: BDRip (источник: Blu-Ray Remux / 1080p)
Формат видео: AVI | Sample
Видео: 720x304 (2.37:1), 23.976 fps, XviD build 50 ~1914 kbps avg, 0.36 bit/pixel
Аудио 1: 48 kHz, AC3 Dolby Digital, 3/2 (L,C,R,l,r) + LFE ch, ~448.00 kbps avg | R5
Аудио 2: 48 kHz, AC3 Dolby Digital, 3/2 (L,C,R,l,r) + LFE ch, ~448.00 kbps avg | Original отдельно
Медиаинфо">

Скриншоты Медиаинфо


Общее
Формат : AVI
Формат/Информация : Audio Video Interleave
Размер файла : 1,45 Гбайт
Продолжительность : 1 ч. 27 м.
Общий поток : 2371 Кбит/сек
Название фильма : Date Night (2010) BDRip
Режиссёр : DaniLch
Жанр : Comedy/Drama/Crime
Программа кодирования : VirtualDubMod 1.5.10.2 (build 2542/release)
Примечание : R.G. HQCLUB
Видео
Идентификатор : 0
Формат : MPEG-4 Visual
Профиль формата : Advanced Simple@L5
Параметр BVOP формата : 1
Параметр QPel формата : Нет
Параметр GMC формата : Без точки перехода
Параметр матрицы формата : Выборочная
Идентификатор кодека : XVID
Идентификатор кодека/Подсказка : XviD
Продолжительность : 1 ч. 27 м.
Битрейт : 1914 Кбит/сек
Ширина : 720 пикселей
Высота : 304 пикселя
Соотношение сторон : 2,35:1
Частота кадров : 23,976 кадра/сек
Цветовое пространство : YUV
Субдискретизация насыщенности : 4:2:0
Битовая глубина : 8 бит
Тип развёртки : Прогрессивная
Метод сжатия : С потерями
Бит/(Пиксели*Кадры) : 0.365
Размер потока : 1,17 Гбайт (81%)
Библиотека кодирования : XviD 1.2.1 (UTC 2008-12-04)
Аудио
Идентификатор : 1
Формат : AC-3
Формат/Информация : Audio Coding 3
Расширение режима : CM (complete main)
Параметр Endianness формата : Big
Идентификатор кодека : 2000
Продолжительность : 1 ч. 27 м.
Вид битрейта : Постоянный
Битрейт : 448 Кбит/сек
Каналы : 6 каналов
Расположение каналов : Front: L C R, Side: L R, LFE
Частота : 48,0 КГц
Битовая глубина : 16 бит
Метод сжатия : С потерями
Размер потока : 281 Мбайт (19%)
Выравнивание : Разделение по промежуткам
Продолжительность промежутка : 42 мс. (1,00 видеокадр)
Время предзагрузки промежутка : 500 мс.

Дополнительно

Релиз: HQCLUB
Рип: DaniLch
[Профиль] [ЛС]

Создавать темы 06-Авг-2015 23:20 (спустя 11 месяцев 26 дней)

Топик был перенесен из форума Фильмы до 2014 года в форум Фильмы до 2012 года
sergej644
 

Создавать темы 12-Июн-2016 07:53 (спустя 1 год 10 месяцев)

Топик был перенесен из форума Фильмы 2011 года в форум Фильмы 2010 года
Russian Mafia
 
Кто просматривает тему:

Форум Тема Автор Размер
Приключения, Квесты, Логические 9 Улик 2: Безумие / 9 Clues 2: The Ward (2014) PC достали все 991 MB
Фильмы (HD Rips | 720p, 1080p) Безумная свадьба / Qu'est-ce qu'on a fait au Bon Dieu? (2014) BDRip 720p | Лицензия sergej644 4.63 GB
Фильмы 2014 года Безумная свадьба / Qu'est-ce qu'on a fait au Bon Dieu? (2014) BDRip-AVC | Лицензия sergej644 1.86 GB
Фильмы (HD DVD, Blu-ray и BDRemux) Безумная свадьба / Qu'est-ce qu'on a fait au Bon Dieu? (2014) Blu-Ray | Rus Transfer | Лицензия Russian Mafia 19.28 GB
Фильмы 2014 года Безумная свадьба / Qu'est-ce qu'on a fait au Bon Dieu? (Филипп де Шоврон) [2014 г., Комедия, HDRip] BOSS 1.46 GB
Фильмы (HD Rips | 720p, 1080p) Безумное свидание / Date Night (2010) BDRip 720p | Театральная версия sergej644 3.23 GB
Фильмы 2010 года Безумное свидание / Date Night (Шон Леви / Shawn Levy) [2010, США, комедия, мелодрама, криминал, HDTVRip] [Open Matte] MVO (1 канал) TorrentFilm 1.37 GB
Фильмы 2010 года Безумное свидание / Date Night (Шон Леви / Shawn Levy) [2010, США, триллер, мелодрама, комедия, криминал, BDRip-AVC] [Extended Edition] Dub + Original (Eng) + Sub (Rus, Ukr, Eng) painkiller 3.05 GB
Показать сообщения:    

Текущее время: Сегодня 22:08

Часовой пояс: GMT



Вы не можете начинать темы
Вы не можете отвечать на сообщения
Вы не можете редактировать свои сообщения
Вы не можете удалять свои сообщения
Вы не можете голосовать в опросах
Вы не можете прикреплять файлы к сообщениям
Вы не можете скачивать файлы