Безродные звери / Beasts of No Nation (Кэри Фукунага / Cary Joji Fukunaga) [2015, США, Драма, военный, WEBRip] VO + Original (Eng) + Subs (Rus, Eng)

 
Автор Сообщение

TorrentFilm ®

Пол:

Стаж: 2 года

Сообщений: 7741



Награды: Нет

Торрент-статистика

Создавать темы 27-Окт-2015 00:09

[Цитировать]

Безродные звери / Beasts of No Nation
«Ребенок. Пленник. Убийца»
- Год выпуска: 2015
Выпущено: США / Come What May Productions
Жанр: драма, военный
Продолжительность: 02:16:32
Перевод: Одноголосый закадровый |Project Web Money|
Cубтитры: Русские, Английские (SDH) (внешние .srt*)
Оригинальная аудиодорожка: Английская-Режиссер:
Кэри Фукунага / Cary Joji Fukunaga-В ролях:
Абрам Атта (Agu), Идрис Эльба (Commandant), Эммануэль Аффадзи (Dike), Рики Аделейтор (Village Constable), Эндрю Эдот (Ecomod 2nd Lieutenant), Вера Нярко Анти (Little Sister), Ама K. Абебрезе (Mother), Кобина Амисса-Сэм (Father), Френсис Уэдди (Big Brother), Фред Нии Амуджи (Pastor), Джон Артур (Angry Bush Taxi Driver)-Описание:
Фильм расскажет о приключениях юноши по имени Агу, которого гражданская война на западе Африки принуждает вступить в команду наемников. Судьбе мало того, что парень пережил гибель отца и исчезновение сестры и матери, она погружает его в жизнь, полную насилия и жестокости.-Релиз групп | | IMDB | КиноПоиск | Сэмпл |-Качество: WEBRip [Beasts.Of.No.Nation.2015.1080p.WEBRip.x264.DD5.1-FGT]
Формат: AVI
Видео: 688x288 (2.39:1), 23.976 fps, XviD build 67 ~1262 kbps avg, 0.27 bit/pixel
Аудио #1: 48 kHz, MPEG Layer 3, 2 ch, ~128.00 kbps avg (RUS)
Аудио #2: 48 kHz, MPEG Layer 3, 2 ch, ~128.00 kbps avg (ENG)
-

Скриншоты

MediaInfo

General
Complete name                            : D:\Bezrodnye_zveri_2015_WEBRip_VO_by_Dalemake.avi
Format                                   : AVI
Format/Info                              : Audio Video Interleave
File size                                : 1.46 GiB
Duration                                 : 2h 16mn
Overall bit rate                         : 1 534 Kbps
Writing application                      : VirtualDubMod 1.5.10.3 | www.virtualdub-fr.org || (build 2550/release)
Writing library                          : VirtualDubMod build 2550/release
Video
ID                                       : 0
Format                                   : MPEG-4 Visual
Format profile                           : Advanced Simple@L5
Format settings, BVOP                    : 1
Format settings, QPel                    : No
Format settings, GMC                     : No warppoints
Format settings, Matrix                  : Custom
Codec ID                                 : XVID
Codec ID/Hint                            : XviD
Duration                                 : 2h 16mn
Bit rate                                 : 1 264 Kbps
Width                                    : 688 pixels
Height                                   : 288 pixels
Display aspect ratio                     : 2.40:1
Frame rate                               : 23.976 fps
Color space                              : YUV
Chroma subsampling                       : 4:2:0
Bit depth                                : 8 bits
Scan type                                : Progressive
Compression mode                         : Lossy
Bits/(Pixel*Frame)                       : 0.266
Stream size                              : 1.21 GiB (82%)
Writing library                          : XviD 67
Audio #1
ID                                       : 1
Format                                   : MPEG Audio
Format version                           : Version 1
Format profile                           : Layer 3
Codec ID                                 : 55
Codec ID/Hint                            : MP3
Duration                                 : 2h 16mn
Bit rate mode                            : Constant
Bit rate                                 : 128 Kbps
Channel(s)                               : 2 channels
Sampling rate                            : 48.0 KHz
Compression mode                         : Lossy
Stream size                              : 125 MiB (8%)
Alignment                                : Aligned on interleaves
Interleave, duration                     : 42 ms (1.00 video frame)
Interleave, preload duration             : 504 ms
Writing library                          : LAME3.99r
Encoding settings                        : -m s -V 4 -q 2 -lowpass 17 -b 128
Audio #2
ID                                       : 2
Format                                   : MPEG Audio
Format version                           : Version 1
Format profile                           : Layer 3
Codec ID                                 : 55
Codec ID/Hint                            : MP3
Duration                                 : 2h 16mn
Bit rate mode                            : Constant
Bit rate                                 : 128 Kbps
Channel(s)                               : 2 channels
Sampling rate                            : 48.0 KHz
Compression mode                         : Lossy
Stream size                              : 125 MiB (8%)
Alignment                                : Aligned on interleaves
Interleave, duration                     : 42 ms (1.00 video frame)
Interleave, preload duration             : 504 ms
Writing library                          : LAME3.99r
Encoding settings                        : -m s -V 4 -q 2 -lowpass 17 -b 128
-
[Профиль] [ЛС]
Показать сообщения:    

Текущее время: Сегодня 12:11

Часовой пояс: GMT



Вы не можете начинать темы
Вы не можете отвечать на сообщения
Вы не можете редактировать свои сообщения
Вы не можете удалять свои сообщения
Вы не можете голосовать в опросах
Вы не можете прикреплять файлы к сообщениям
Вы не можете скачивать файлы