Безнадега / Отчаяние / Обреченность / Desperation (Мик Гаррис / Mick Garris) [2006, США, ужасы, фэнтези, триллер, DVDRip] MVO (ТВ-3) + DVO (НТВ+) + AVO (Андрей Гаврилов) + AVO (Михаил Иванов)

 
Автор Сообщение

TorrentFilm ®

Пол:

Стаж: 2 года 11 месяцев

Сообщений: 7763



Награды: Нет

Торрент-статистика

Создавать темы 07-Июл-2015 00:10

[Цитировать]

Безнадега / Отчаяние / Обреченность / Desperation
Страна: США
Жанр: ужасы, фэнтези, триллер
Год выпуска: 2006
Продолжительность: 02:10:43
-
Перевод 1: Профессиональный (многоголосый закадровый) ТВ-3
Перевод 2: Профессиональный (двухголосый закадровый) НТВ+
Перевод 3: Авторский (одноголосый закадровый) Андрей Гаврилов
Перевод 4: Авторский (одноголосый закадровый) Михаил Иванов
Cубтитры: нет
-
Режиссер: Мик Гаррис / Mick Garris
В ролях: Том Скеррит, Стивен Уэбер, Аннабет Гиш, Чарльз Дёрнинг, Мэтт Фрюэр, Генри Томас, Шэйн Хабуча, Келли Овертон, Силва Келегиан, Рон Перлман, Сэмми Ханратти
-
Описание: Несколько путешественников, проезжающих через городок под названием Безнадега, затерявшийся посреди пустыни в штате Невада, арестованы местным шерифом. Так они становятся пленниками одержимого демонами маньяка, который обладает способностью призывать себе на помощь гремучих змей и ядовитых пауков…
-
Доп. информация:
-
Сэмпл: http://sendfile.su/1134474
-
Качество видео: DVDRip (DVD9/JungleBrother - видео, DVD5/Sleon2002, DVD5/Goldtwait - аудио)
Формат видео: AVI
Видео: 688x384 (1.79:1), 23.976 fps, XviD build 65 ~1396 kbps avg, 0.22 bit/pixel
Аудио 1: 48 kHz, AC3 Dolby Digital, 2/0 (L,R) ch, ~192 kbps ТВ-3
Аудио 2: 48 kHz, AC3 Dolby Digital, 2/0 (L,R) ch, ~192 kbps НТВ+ Отдельно
Аудио 3: 48 kHz, AC3 Dolby Digital, 3/2 (L,C,R,l,r) + LFE ch, ~384 kbps Гаврилов Отдельно
Аудио 4: 48 kHz, AC3 Dolby Digital, 3/2 (L,C,R,l,r) + LFE ch, ~384 kbps Иванов Отдельно

MediaInfo

General
Complete name : C:\Users\ALEX\Downloads\Фильмы\Desperation.2006.RUS.DVDRip.XviD.AC3\Desperation.2006.RUS.DVDRip.XviD.AC3.avi
Format : AVI
Format/Info : Audio Video Interleave
File size : 1.46 GiB
Duration : 2h 10mn
Overall bit rate : 1 598 Kbps
Writing application : VirtualDubMod 1.5.10.2 (build 2542/release)
Writing library : VirtualDubMod build 2542/release
Video
ID : 0
Format : MPEG-4 Visual
Format profile : Advanced Simple@L5
Format settings, BVOP : 1
Format settings, QPel : No
Format settings, GMC : No warppoints
Format settings, Matrix : Custom
Codec ID : XVID
Codec ID/Hint : XviD
Duration : 2h 10mn
Bit rate : 1 396 Kbps
Width : 688 pixels
Height : 384 pixels
Display aspect ratio : 16:9
Frame rate : 23.976 fps
Color space : YUV
Chroma subsampling : 4:2:0
Bit depth : 8 bits
Scan type : Progressive
Compression mode : Lossy
Bits/(Pixel*Frame) : 0.220
Stream size : 1.27 GiB (87%)
Writing library : XviD 65
Audio
ID : 1
Format : AC-3
Format/Info : Audio Coding 3
Mode extension : CM (complete main)
Format settings, Endianness : Big
Codec ID : 2000
Duration : 2h 10mn
Bit rate mode : Constant
Bit rate : 192 Kbps
Channel(s) : 2 channels
Channel positions : Front: L R
Sampling rate : 48.0 KHz
Bit depth : 16 bits
Compression mode : Lossy
Stream size : 180 MiB (12%)
Alignment : Split accross interleaves
Interleave, duration : 42 ms (1.00 video frame)
Interleave, preload duration : 500 ms

Скриншоты

[Профиль] [ЛС]

Создавать темы 06-Авг-2015 22:25 (спустя 30 дней)

Топик был перенесен из форума Фильмы до 2014 года в форум Фильмы до 2012 года
sergej644
 
Кто просматривает тему:

Показать сообщения:    

Текущее время: Сегодня 23:04

Часовой пояс: GMT



Вы не можете начинать темы
Вы не можете отвечать на сообщения
Вы не можете редактировать свои сообщения
Вы не можете удалять свои сообщения
Вы не можете голосовать в опросах
Вы не можете прикреплять файлы к сообщениям
Вы не можете скачивать файлы