Безмозглые / BrainDead [S01] (2016) HDTVRip 720p | OMSKBIRD

 
Автор Сообщение

достали все ®

Пол:

Стаж: 1 год 8 месяцев

Сообщений: 6545



Награды: 12 (Подробнее)

Mega Seeder 1 (Количество: 1) Top Releaser 4 (Количество: 1) Top Releaser 3 (Количество: 1)
Торрент-статистика

Создавать темы 14-Сен-2016 12:48

[Цитировать]

Информация о фильме
Название: Смерть мозга
Оригинальное название: BrainDead
Год выхода: 2016
Жанр: фантастика, ужасы, драма
Режиссер: Роберт Кинг
В ролях: Мэри Элизабет Уинстэд, Жан Максвелл, Бет Мэлоун, Чарльз Семине, Хэппи Андерсон, Джонни Гилл, Меган Хилти и др.
О фильме:
Сериал сфокусируется на молодой стажерке Конгресса, которая только переехала в Вашингтон и приступила к работе в Капитолии.
Очень скоро главной героине предстоит сделать два невероятных открытия:
1. Правительство США перестало работать.
2. Инопланетяне прибыли на Землю и питаются мозгом растущего числа конгрессменов и сотрудников Капитолия.

Страна: США
Продолжительность: ~ 44 мин. серия
Перевод: Любительский (многоголосый закадровый) | OMSKBIRD
Файл
Кодек: MPEG-4 AVC
Качество: HDTV 720p
Видео: AVC, 1280x720 (16:9), 23.976 fps, ~ 2000 kbps
Звук: Аудио rus: AC-3, 48 KHz, 6 ch, 384 kbps | OMSKBIRD records
Аудио eng: AC-3, 48 KHz, 6 ch, 384 kbps
Семпл
Присутствует реклама!

Скриншоты

Mediainfo:

General
Unique ID : 239417668755411605623209101906476138712 (0xB41E2A6E679F3F368EFBFC81A8DA00D8)
Complete name : F:Мои ДокументыВидеоРАЗДАЧИБрэйнДедBrainDead S01 HDTV 720p (OMSKBIRD)BrainDead S01E01 HDTV 720p (OMSKBIRD).mkv
Format : Matroska
Format version : Version 2
File size : 831 MiB
Duration : 43mn 39s
Overall bit rate : 2 663 Kbps
Encoded date : UTC 2016-06-15 18:37:38
Writing application : mkvmerge v4.0.0 ('The Stars were mine') сборка от Jun 6 2010 16:18:42
Writing library : libebml v1.0.0 + libmatroska v1.0.0
Video
ID : 1
Format : AVC
Format/Info : Advanced Video Codec
Format profile : High@L4.1
Format settings, CABAC : Yes
Format settings, ReFrames : 9 frames
Codec ID : V_MPEG4/ISO/AVC
Duration : 43mn 39s
Bit rate : 1 842 Kbps
Width : 1 280 pixels
Height : 720 pixels
Display aspect ratio : 16:9
Frame rate : 23.976 fps
Color space : YUV
Chroma subsampling : 4:2:0
Bit depth : 8 bits
Scan type : Progressive
Bits/(Pixel*Frame) : 0.083
Stream size : 575 MiB (69%)
Writing library : x264 core 148 r2665 a01e339
Encoding settings : cabac=1 / ref=9 / deblock=1:-2:-2 / analyse=0x3:0x133 / me=umh / subme=10 / psy=1 / psy_rd=1.00:0.00 / mixed_ref=1 / me_range=32 / chroma_me=1 / trellis=2 / 8x8dct=1 / cqm=0 / deadzone=21,11 / fast_pskip=0 / chroma_qp_offset=-2 / threads=16 / lookahead_threads=1 / sliced_threads=0 / nr=0 / decimate=1 / interlaced=0 / bluray_compat=0 / constrained_intra=0 / bframes=5 / b_pyramid=2 / b_adapt=2 / b_bias=0 / direct=3 / weightb=1 / open_gop=0 / weightp=2 / keyint=250 / keyint_min=23 / scenecut=40 / intra_refresh=0 / rc_lookahead=60 / rc=crf / mbtree=1 / crf=18.0 / qcomp=0.60 / qpmin=0 / qpmax=69 / qpstep=4 / ip_ratio=1.40 / aq=1:1.00
Language : English
Default : No
Forced : No
Matrix coefficients : BT.709-5, BT.1361, IEC 61966-2-4 709, SMPTE RP177
Audio #1
ID : 2
Format : AC-3
Format/Info : Audio Coding 3
Mode extension : CM (complete main)
Format settings, Endianness : Big
Codec ID : A_AC3
Duration : 43mn 39s
Bit rate mode : Constant
Bit rate : 384 Kbps
Channel(s) : 6 channels
Channel positions : Front: L C R, Side: L R, LFE
Sampling rate : 48.0 KHz
Bit depth : 16 bits
Compression mode : Lossy
Stream size : 120 MiB (14%)
Language : Russian
Default : Yes
Forced : No
Audio #2
ID : 3
Format : AC-3
Format/Info : Audio Coding 3
Mode extension : CM (complete main)
Format settings, Endianness : Big
Codec ID : A_AC3
Duration : 43mn 39s
Bit rate mode : Constant
Bit rate : 384 Kbps
Channel(s) : 6 channels
Channel positions : Front: L C R, Side: L R, LFE
Sampling rate : 48.0 KHz
Bit depth : 16 bits
Compression mode : Lossy
Stream size : 120 MiB (14%)
Language : English
Default : No
Forced : No

Релиз:

Перевод • Анна Помигуева
Роли озвучивали • Павел Ярощик, Семен Ващенко, Маргарита
Звукорежиссер • Павел Квентов
Постер • Ксения Просветова
Релиз подготовил • Gater
[Профиль] [ЛС]
Показать сообщения:    

Текущее время: Сегодня 16:37

Часовой пояс: GMT



Вы не можете начинать темы
Вы не можете отвечать на сообщения
Вы не можете редактировать свои сообщения
Вы не можете удалять свои сообщения
Вы не можете голосовать в опросах
Вы не можете прикреплять файлы к сообщениям
Вы не можете скачивать файлы