Бездомные домовые (Соколов Станислав) [1981 г., кукольный мультфильм, DVB]

 
Автор Сообщение

TorrentFilm ®

Пол:

Стаж: 2 года

Сообщений: 7741



Награды: Нет

Торрент-статистика

Создавать темы 02-Янв-2016 00:10

[Цитировать]

Бездомные домовые
Жанр: кукольный мультфильм
Год выпуска: 1981
Продолжительность: 00:09:45
Режиссёр: Соколов Станислав
Описание: мультфильм о двух маленьких домовых, которых злая хозяйка прогнала из дома ...
Доп. информация: огромная благодарность за предоставленный исходник

Релиз группы:
Трансляция спутникового канала:

Качество видео: DVB
Формат видео: MPEG-PS
Видео: MPEG2 Video, 720x576@768x576 (4:3), анаморф, 25 fps, 9000 kbps
Аудио: MPEG Audio, 2 сh, 48 kHz, 384 Kbps

MediaInfo

D:\Бездомные домовые. (1981)_DVB by RG multfilms.mpg
General
Complete name : D:\Бездомные домовые. (1981)_DVB by RG multfilms.mpg
Format : MPEG-PS
File size : 667 MiB
Duration : 9mn 45s
Overall bit rate : 9 559 Kbps
Video #224
ID : 224 (0xE0)
Format : MPEG Video
Format version : Version 2
Format profile : Main@Main
Format settings, BVOP : Yes
Format settings, Matrix : Custom
Format settings, GOP : M=3, N=12
Duration : 9mn 45s
Bit rate : 9 000 Kbps
Width : 720 pixels
Height : 576 pixels
Display aspect ratio : 4:3
Frame rate : 25.000 fps
Standard : PAL
Color space : YUV
Chroma subsampling : 4:2:0
Bit depth : 8 bits
Scan type : Interlaced
Scan order : Top Field First
Compression mode : Lossy
Bits/(Pixel*Frame) : 0.868
Stream size : 627 MiB (94%)
Audio #192
ID : 192 (0xC0)
Format : MPEG Audio
Format version : Version 1
Format profile : Layer 2
Duration : 9mn 45s
Bit rate mode : Constant
Bit rate : 384 Kbps
Channel(s) : 2 channels
Sampling rate : 48.0 KHz
Compression mode : Lossy
Delay relative to video : -104ms
Stream size : 26.8 MiB (4%)
Menu

Скриншоты


[Профиль] [ЛС]
Кто просматривает тему:

Форум Тема Автор Размер
Author's Song (Rock) Константин Никольский - Я бреду по бездорожью... - 1993, 1st Press FLAC (image+.cue), lossless sergej644 314 MB
Документальные HD Аляска. Войны по бездорожью (сезон 1, серии 1-8 из 8) / Alaska Off-Road Warriors [2015, Познавательный, HDTV 1080i] TorrentFilm 13.95 GB
Зарубежные мультсериалы Бездомный бог / Noragami [01-13 из 13] (2015) HDTVRip 720p | L2 BOSS 4.99 GB
Зарубежные мультсериалы Бездомный Бог / Норагами. Арагото / Noragami . Aragoto (Сезон 1-2 ,Серии 1-25 из 25) (Котаро Тамура) [2014-2015, Приключения, комедия, мистика, мультсериал , HDTVRip720р] [Rus , Jap]+[Sub Rus ] Враг Нароода 9.54 GB
Отечественные мультфильмы Бездомный Конгурджа (Евгений Михельсон) [1972, кукольный мультфильм, DVDRip] TorrentFilm 220 MB
Документальные HD Воины бездорожья (Людмила Снигирева и Юрий Однопозов) [2015, Документальный, HDTV 1080i] TorrentFilm 4.02 GB
Флора и фауна Дорога из приюта / Pound Pups to Dog Stars (1-8 серии из 10) (Николай Гриффин / Nicola Griffin) [2013, Документальный, пристройство бездомных собак, TVRip] reversefile 2.51 GB
Документальные HD Полюс Холода: Воины Бездорожья (Людмила Снигирева и Юрий Однопозов) [2015, Документальный, HDTV 720p] TorrentFilm 1.56 GB
Показать сообщения:    

Текущее время: Сегодня 11:54

Часовой пояс: GMT



Вы не можете начинать темы
Вы не можете отвечать на сообщения
Вы не можете редактировать свои сообщения
Вы не можете удалять свои сообщения
Вы не можете голосовать в опросах
Вы не можете прикреплять файлы к сообщениям
Вы не можете скачивать файлы