Безбрачная неделя / Hall Pass (2011) BDRip 720p | Театральная версия

 
Автор Сообщение

sergej644 ®

Пол:

Стаж: 4 года 11 месяцев

Сообщений: 6046

Откуда: Soviet Union



Награды: Нет

Торрент-статистика

Создавать темы 31-Янв-2015 23:23

[Цитировать]

Безбрачная неделя / Hall Pass
Страна: США
Год выпуска: 2011
Жанр: комедия
Продолжительность: 01:45:22
Перевод: Профессиональный (полное дублирование) Лицензия
Режиссер: Бобби Фаррелли, Питер Фаррелли / Bobby Farrelly, Peter Farrelly
Актеры: Оуэн Уилсон, Джейсон Судейкис, Дженна Фишер, Кристина Эпплгейт, Никки Уилан, Ричард Дженкинс, Стивен Мерчант, Ларри Джо Кэмпбелл, Брюс Томас, Тайлер Хэклин
Описание фильма: Главный герой получает от своей супруги разрешение на свободные отношения с другими женщинами. Похожая ситуация возникает и в семье его лучшего друга. Когда жены героев также решают воспользоваться подобным «пропуском», история принимает новый оборот.

Файл
Качество видео: BDRip 720p Исходник: Blu-ray
Формат: MKV Видео кодек: MPEG-4 AVC Аудио кодек: AC3
Видео: AVC, 1280x532 (2.40:1) at 23.976 fps, AVC at 3455 kbps avg, 0.212 bit/pixel
Аудио: Russian: 48 kHz; AC3 5.1; 384.00 kbps avg; профессиональный, полное дублирование
Субтитры: Русские, английские
Навигация по главам: Есть

Скриншоты

MediaInfo

Hall Pass.2011.720p.BluRay.x264-LEONARDO_[scarabey.org].mkv
Format : Matroska
Format version : Version 2
File size : 2.88 GiB
Duration : 1h 45mn
Overall bit rate : 3 917 Kbps
Movie name : Release by Leonardo for Scarabey.org
Encoded date : UTC 2014-08-11 19:36:03
Writing application : mkvmerge v5.0.1 ('Es ist Sommer') built on Oct 23 2011 00:46:40
Writing library : libebml v1.2.2 + libmatroska v1.3.0
Attachment : Yes
Video
ID : 1
Format : AVC
Format/Info : Advanced Video Codec
Format profile : High@L4.1
Format settings, CABAC : Yes
Format settings, ReFrames : 8 frames
Codec ID : V_MPEG4/ISO/AVC
Duration : 1h 45mn
Bit rate : 3 455 Kbps
Width : 1 280 pixels
Height : 532 pixels
Display aspect ratio : 2.40:1
Frame rate : 23.976 fps
Color space : YUV
Chroma subsampling : 4:2:0
Bit depth : 8 bits
Scan type : Progressive
Bits/(Pixel*Frame) : 0.212
Stream size : 2.54 GiB (88%)
Writing library : x264 core 125 r2208 d9d2288
Encoding settings : cabac=1 / ref=8 / deblock=1:-3:-3 / analyse=0x3:0x133 / me=umh / subme=11 / psy=1 / psy_rd=1.00:0.00 / mixed_ref=1 / me_range=32 / chroma_me=1 / trellis=2 / 8x8dct=1 / cqm=0 / deadzone=21,11 / fast_pskip=0 / chroma_qp_offset=-2 / threads=12 / lookahead_threads=2 / sliced_threads=0 / nr=0 / decimate=1 / interlaced=0 / bluray_compat=0 / constrained_intra=0 / bframes=8 / b_pyramid=2 / b_adapt=2 / b_bias=0 / direct=1 / weightb=1 / open_gop=0 / weightp=2 / keyint=250 / keyint_min=23 / scenecut=40 / intra_refresh=0 / rc=crf / mbtree=0 / crf=19.0 / qcomp=0.60 / qpmin=0 / qpmax=69 / qpstep=4 / ip_ratio=1.10 / pb_ratio=1.10 / aq=1:1.00
Language : English
Default : Yes
Forced : No
Audio
ID : 2
Format : AC-3
Format/Info : Audio Coding 3
Mode extension : CM (complete main)
Codec ID : A_AC3
Duration : 1h 45mn
Bit rate mode : Constant
Bit rate : 384 Kbps
Channel(s) : 6 channels
Channel positions : Front: L C R, Side: L R, LFE
Sampling rate : 48.0 KHz
Bit depth : 16 bits
Compression mode : Lossy
Stream size : 289 MiB (10%)
Language : Russian
Default : Yes
Forced : Yes
Text #1
ID : 3
Format : UTF-8
Codec ID : S_TEXT/UTF8
Codec ID/Info : UTF-8 Plain Text
Title : Sub
Language : Russian
Default : Yes
Forced : No
Text #2
ID : 4
Format : UTF-8
Codec ID : S_TEXT/UTF8
Codec ID/Info : UTF-8 Plain Text
Title : Sub
Language : English
Default : No
Forced : No
Menu
00:00:00.000 : en:00:00:00.000
00:10:15.197 : en:00:10:15.197
00:22:40.192 : en:00:22:40.192
00:30:21.528 : en:00:30:21.528
00:40:58.164 : en:00:40:58.164
00:50:11.298 : en:00:50:11.298
01:00:39.052 : en:01:00:39.052
01:10:24.720 : en:01:10:24.720
01:19:12.622 : en:01:19:12.622
01:31:25.186 : en:01:31:25.186
01:34:28.746 : en:01:34:28.746
01:45:22.231 : :01:45:22.231
[Профиль] [ЛС]
Кто просматривает тему:

Форум Тема Автор Размер
Телепередачи Раскрывая мистические тайны. Венцы безбрачия (2016) SATRip достали все 578 MB
Показать сообщения:    

Текущее время: Сегодня 09:09

Часовой пояс: GMT



Вы не можете начинать темы
Вы не можете отвечать на сообщения
Вы не можете редактировать свои сообщения
Вы не можете удалять свои сообщения
Вы не можете голосовать в опросах
Вы не можете прикреплять файлы к сообщениям
Вы не можете скачивать файлы