Безбожница / She\'s Got It (Джейкоб Голдвассер / Jacob Goldwasser) [2007, Израиль, Комедия, DVDRip] + Sub Rus + Original Heb

 
Автор Сообщение

painkiller ®

Стаж: 2 года 3 месяца

Сообщений: 582



Награды: Нет

Торрент-статистика

Создавать темы 14-Авг-2014 09:11

[Цитировать]

Безбожница / She's Got It / Ein la Elohim
Страна: Израиль
Жанр: Комедия
Год выпуска: 2007
Продолжительность: 01:28:32
Перевод: Субтитры
Cубтитры: русские
Оригинальная аудиодорожка: иврит
Режиссер: Джейкоб Голдвассер / Jacob Goldwasser
В ролях: Рэймонд Абекассис, Дорит Бар-Ор, Моше Фолкенфлик, Эвелин Каплун, Яэль Поляков, Эял Розалес, Юваль Сигал, Мейр Суисса
Описание: В маленьком городке на юге Израиля два мошенника — инкассатор и владелец маленькой типографии — планируют совершить ограбление инкассаторской машины. Но хитрый план становится известен трём женщинам.
Доп. информация: КиноПоиск IMDb
Сэмпл: https://www.mediafire.com/?3tph2dzcb9wqizz
Качество видео: DVDRip
Формат видео: AVI
Видео: Xvid 608х336 16:9 25 кадров/сек 986 Кбит/сек
Аудио: MP3 48 КГц 2 канала 128 Кбит/сек
Формат субтитров: softsub (SRT)

Образец субтитров

613
00:48:15,207 --> 00:48:16,765
В следующее воскресенье.
614
00:48:19,607 --> 00:48:22,360
Как только прибудет факс с перечнем
банкнот из эйлатского казино,
615
00:48:22,487 --> 00:48:24,125
ты перешлёшь его нам.
616
00:48:24,287 --> 00:48:27,040
Для чего тебе нужен
точный перечень банкнот?
617
00:48:27,167 --> 00:48:29,158
Чтобы мы могли потом
отслеживать движение денег.
618
00:48:29,447 --> 00:48:32,280
Если они переведут деньги из инвестиционной компании в какую-нибудь фиктивную
619
00:48:32,407 --> 00:48:34,477
и сделают с деньгами
различные незаконные операции,
620
00:48:34,607 --> 00:48:36,598
нужно будет доказать это в суде.
621
00:48:38,207 --> 00:48:39,640
Да...
622
00:48:45,647 --> 00:48:47,638
Ты изменилась.
623
00:48:51,087 --> 00:48:54,762
Что ты думаешь, я каждый день
участвую в таких операциях.
624
00:48:56,727 --> 00:48:58,479
Нет, это не то.
625
00:49:06,927 --> 00:49:09,441
- С тобой всё в порядке?
- Вполне.
626
00:49:16,687 --> 00:49:18,325
Нет ничего лучше "Pina Colada"!
627
00:49:21,647 --> 00:49:24,320
Нужно удалить начальника из банка.
628
00:49:25,607 --> 00:49:28,280
Соблазни его, чтобы пошёл с тобой куда-нибудь
в обеденный перерыв.
629
00:49:28,407 --> 00:49:30,762
Сошёл с ума совсем?
Я не хочу сближаться с ним.
630
00:49:30,887 --> 00:49:32,366
Не дай бог, он тронет тебя!
631
00:49:33,367 --> 00:49:36,120
Тогда, что я скажу ему? "До сих пор
я просто работала с тобой"?
632
00:49:36,247 --> 00:49:39,523
Нет, задержи его.
Приготовь ему что-нибудь выпить.
633
00:49:46,647 --> 00:49:48,126
Подмешай ему это.
634
00:49:48,567 --> 00:49:50,444
Две таких хватит, чтобы сразу заснуть.
635
00:49:50,567 --> 00:49:53,081
Нет, нет, нет, это мне не нравится.
636
00:49:56,207 --> 00:49:59,279
- Ты можешь отказаться.
- Нет, нет, нет, я не отказываюсь.

MediaInfo

Общее
Полное имя : Ein La Elohim - 2007.avi
Формат : AVI
Формат/Информация : Audio Video Interleave
Размер файла : 700 Мбайт
Продолжительность : 1 ч. 28 м.
Режим общего битрейта : Переменный
Общий поток : 1105 Кбит/сек
Программа кодирования : VirtualDubMod 1.5.4.1 (build 2178/release)
Библиотека кодирования : VirtualDubMod build 2178/release
Видео
Идентификатор : 0
Формат : MPEG-4 Visual
Профиль формата : Simple@L3
Параметр BVOP формата : 1
Параметр QPel формата : Нет
Параметр GMC формата : Без точки перехода
Параметр матрицы формата : Выборочная
Идентификатор кодека : XVID
Идентификатор кодека/Подсказка : XviD
Продолжительность : 1 ч. 28 м.
Битрейт : 986 Кбит/сек
Ширина : 608 пикселей
Высота : 336 пикселей
Соотношение сторон : 16:9
Частота кадров : 25,000 кадров/сек
Цветовое пространство : YUV
Субдискретизация насыщенности : 4:2:0
Битовая глубина : 8 бит
Тип развёртки : Прогрессивная
Метод сжатия : С потерями
Бит/(Пиксели*Кадры) : 0.193
Размер потока : 624 Мбайт (89%)
Библиотека кодирования : XviD 1.0.3 (UTC 2004-12-20)
Аудио
Идентификатор : 1
Формат : MPEG Audio
Версия формата : Version 1
Профиль формата : Layer 3
Режим : Joint stereo
Идентификатор кодека : 55
Идентификатор кодека/Подсказка : MP3
Продолжительность : 1 ч. 26 м.
Вид битрейта : Переменный
Битрейт : 109 Кбит/сек
Номинальный битрейт : 128 Кбит/сек
Каналы : 2 канала
Частота : 48,0 КГц
Метод сжатия : С потерями
Размер потока : 67,4 Мбайт (10%)
Выравнивание : Соединение по промежуткам
Продолжительность промежутка : 25 мс. (0,61 видеокадр)
Время предзагрузки промежутка : 585 мс.
Библиотека кодирования : LAME3.97b
Настройки программы : -m j -V 4 -q 2 -lowpass 17 --abr 128

Скриншот c названием фильма

Скриншоты

[Профиль] [ЛС]

Создавать темы 06-Авг-2015 23:17 (спустя 11 месяцев 23 дня)

Топик был перенесен из форума Фильмы до 2014 года в форум Фильмы до 2012 года
sergej644
 
Кто просматривает тему:

Показать сообщения:    

Текущее время: Сегодня 18:59

Часовой пояс: GMT



Вы не можете начинать темы
Вы не можете отвечать на сообщения
Вы не можете редактировать свои сообщения
Вы не можете удалять свои сообщения
Вы не можете голосовать в опросах
Вы не можете прикреплять файлы к сообщениям
Вы не можете скачивать файлы