Бедуин (Игорь Волошин) [2011, Россия, драма, BDRip 720p]

 
Автор Сообщение

TorrentFilm ®

Пол:

Стаж: 2 года

Сообщений: 7741



Награды: Нет

Торрент-статистика

Создавать темы 01-Янв-2016 00:06

[Цитировать]

Бедуин- Страна: Россия
Студия: Bulldozerfilms
Жанр: драма
Год выпуска: 2011
Продолжительность: 01:35:33-Перевод: Не требуется
Cубтитры: нет
Режиссер: Игорь Волошин-В ролях: Ольга Симонова, Серафима Мигай, Михаил Евланов, Ремигиюс Сабулис, Доржи Галсанов, Анна Михалкова, Сергей Светлаков, Динара Друкарова, Светлана Смирнова, Алиса Хазанова, Владимир Шевельков, Георгий Гургулия, Ильдар Таймасов, Илья Дель-Описание: Ради спасения больной лейкозом дочки Рита решается стать суррогатной матерью для странной гей-пары. Однако, получить деньги Рита не успевает. Лечение нельзя прерывать, поиски донора и запланированная операция по трансплантации костного мозга требуют принятия быстрых решений. Столкнувшись с бессилием врачей, Рита решается уехать в Иорданию, к бедуинам, которые лечат рак верблюжьим молоком. Она забирает дочь из больницы, и они летят в страну, которая в итоге меняет в их жизни всё…-Доп. информация: Приз за лучшую женскую роль Ольге Симоновой на VII МКФ «Евразия» (2011); главный приз "Кинотавра" (2011); "Хрустальный глобус" на МКФ в Карловых Варах (2011).-Сэмпл: http://multi-up.com/725796- -Релиз от:
Тип релиза: BDRip 720p
Контейнер: MKV
Видео: 8348 kbps, 1280*692, 25 fps, avc
Аудио: Rus, 640 kbps, 48.0 KHz, 16 bits, 6 ch, ac-3-

x264.log

-[NoImage] raw [info]: 1280x692p 1:1 @ 25/1 fps (cfr)
-[NoImage] x264 [info]: using SAR=1/1
-[NoImage] x264 [info]: using cpu capabilities: MMX2 SSE2Fast SSSE3 FastShuffle SSE4.2 AVX
-[NoImage] x264 [info]: profile High, level 4.1
-[NoImage]
-[NoImage] x264 [info]: frame I:852 Avg QP:18.42 size:116921
-[NoImage] x264 [info]: frame P:25901 Avg QP:20.67 size: 60250
-[NoImage] x264 [info]: frame B:116575 Avg QP:21.15 size: 37012
-[NoImage] x264 [info]: consecutive B-frames: 1.0% 1.3% 4.0% 9.8% 8.6% 57.2% 4.5% 1.4% 3.4% 5.1% 1.2% 1.4% 1.1%
-[NoImage] x264 [info]: mb I I16..4: 5.8% 84.9% 9.3%
-[NoImage] x264 [info]: mb P I16..4: 0.5% 18.6% 1.4% P16..4: 30.3% 33.6% 11.4% 0.0% 0.0% skip: 4.2%
-[NoImage] x264 [info]: mb B I16..4: 0.1% 4.2% 0.2% B16..8: 34.2% 23.5% 5.5% direct:12.3% skip:20.0% L0:42.2% L1:38.0% BI:19.7%
-[NoImage] x264 [info]: 8x8 transform intra:91.3% inter:65.2%
-[NoImage] x264 [info]: direct mvs spatial:98.9% temporal:1.1%
-[NoImage] x264 [info]: coded y,uvDC,uvAC intra: 93.6% 93.0% 77.7% inter: 52.4% 50.0% 22.8%
-[NoImage] x264 [info]: i16 v,h,dc,p: 34% 14% 8% 45%
-[NoImage] x264 [info]: i8 v,h,dc,ddl,ddr,vr,hd,vl,hu: 9% 7% 8% 11% 15% 13% 13% 12% 13%
-[NoImage] x264 [info]: i4 v,h,dc,ddl,ddr,vr,hd,vl,hu: 39% 6% 6% 6% 10% 10% 9% 7% 8%
-[NoImage] x264 [info]: i8c dc,h,v,p: 50% 18% 15% 18%
-[NoImage] x264 [info]: Weighted P-Frames: Y:3.6% UV:1.6%
-[NoImage] x264 [info]: ref P L0: 37.1% 9.4% 21.9% 7.8% 7.8% 4.9% 5.1% 2.7% 3.1% 0.2% 0.0%
-[NoImage] x264 [info]: ref B L0: 70.8% 12.9% 6.3% 3.6% 2.6% 2.2% 1.2% 0.4%
-[NoImage] x264 [info]: ref B L1: 93.6% 6.4%
-[NoImage] x264 [info]: kb/s:8337.24
-[NoImage] encoded 143328 frames, 7.58 fps, 8337.24 kb/s
Source vs. Rip HQFans

MediaInfo

General
Complete name : Бедуин [2011.BDRip.720p].mkv
Format : Matroska
Format version : Version 2
File size : 5.99 GiB
Duration : 1h 35mn
Overall bit rate : 8 979 Kbps
Encoded date : UTC 2012-04-28 05:06:30
Writing application : mkvmerge v5.5.0 ('Healer') built on Apr 6 2012 21:43:24
Writing library : libebml v1.2.3 + libmatroska v1.3.0
Video
ID : 1
Format : AVC
Format/Info : Advanced Video Codec
Format profile : High@L4.1
Format settings, CABAC : Yes
Format settings, ReFrames : 9 frames
Codec ID : V_MPEG4/ISO/AVC
Duration : 1h 35mn
Bit rate : 8 348 Kbps
Width : 1 280 pixels
Height : 692 pixels
Display aspect ratio : 1.850
Frame rate : 25.000 fps
Color space : YUV
Chroma subsampling : 4:2:0
Bit depth : 8 bits
Scan type : Progressive
Bits/(Pixel*Frame) : 0.377
Stream size : 5.45 GiB (91%)
Title : Бедуин [2011, BDRip/720p]
Writing library : x264 core 124 r2197 69a0443
Encoding settings : cabac=1 / ref=9 / deblock=1:-3:-3 / analyse=0x3:0x113 / me=umh / subme=11 / psy=1 / psy_rd=0.85:0.00 / mixed_ref=1 / me_range=48 / chroma_me=1 / trellis=2 / 8x8dct=1 / cqm=0 / deadzone=21,11 / fast_pskip=0 / chroma_qp_offset=-2 / threads=12 / sliced_threads=0 / nr=0 / decimate=0 / interlaced=0 / bluray_compat=0 / constrained_intra=0 / bframes=12 / b_pyramid=2 / b_adapt=2 / b_bias=0 / direct=3 / weightb=1 / open_gop=0 / weightp=2 / keyint=240 / keyint_min=24 / scenecut=40 / intra_refresh=0 / rc_lookahead=40 / rc=2pass / mbtree=0 / bitrate=8348 / ratetol=1.0 / qcomp=0.60 / qpmin=0 / qpmax=69 / qpstep=4 / cplxblur=20.0 / qblur=0.5 / vbv_maxrate=50000 / vbv_bufsize=50000 / nal_hrd=none / ip_ratio=1.40 / pb_ratio=1.30 / aq=1:0.80
Language : Russian
Default : Yes
Forced : Yes
Color primaries : BT.709-5, BT.1361, IEC 61966-2-4, SMPTE RP177
Transfer characteristics : BT.709-5, BT.1361
Matrix coefficients : BT.709-5, BT.1361, IEC 61966-2-4 709, SMPTE RP177
Audio
ID : 2
Format : AC-3
Format/Info : Audio Coding 3
Mode extension : CM (complete main)
Codec ID : A_AC3
Duration : 1h 35mn
Bit rate mode : Constant
Bit rate : 640 Kbps
Channel(s) : 6 channels
Channel positions : Front: L C R, Side: L R, LFE
Sampling rate : 48.0 KHz
Bit depth : 16 bits
Compression mode : Lossy
Stream size : 437 MiB (7%)
Title : Original [AC3 5.1@640kbps]
Language : Russian
Default : Yes
Forced : Yes
Menu
00:00:00.000 : en:Chapter 1
00:00:19.600 : en:Chapter 2
00:10:48.400 : en:Chapter 3
00:22:36.880 : en:Chapter 4
00:34:38.320 : en:Chapter 5
00:46:04.720 : en:Chapter 6
00:56:33.520 : en:Chapter 7
01:09:04.240 : en:Chapter 8
01:21:42.160 : en:Chapter 9
[Профиль] [ЛС]
Кто просматривает тему:

Форум Тема Автор Размер
Фильмы (HD Rips | 720p, 1080p) Бедуин (Игорь Волошин) [2011, Россия, драма, Blu-ray Disc 1080i] TorrentFilm 20.21 GB
Показать сообщения:    

Текущее время: Сегодня 03:21

Часовой пояс: GMT



Вы не можете начинать темы
Вы не можете отвечать на сообщения
Вы не можете редактировать свои сообщения
Вы не можете удалять свои сообщения
Вы не можете голосовать в опросах
Вы не можете прикреплять файлы к сообщениям
Вы не можете скачивать файлы