Беда (Александр Полушкин) [1978 г., мультфильм, SATRip]

 
Автор Сообщение

TorrentFilm ®

Пол:

Стаж: 1 год 11 месяцев

Сообщений: 7741



Награды: Нет

Торрент-статистика

Создавать темы 04-Янв-2016 00:01

[Цитировать]

Беда
Жанр: мультфильм
Год выпуска: 1978
Продолжительность: 00:15:31
Режиссёр: Александр Полушкин
В ролях: Мария Виноградова, Тамара Дмитриева, Георгий Милляр
Описание: По мотивам сказок братьев Бондаренко. О зверях, помогавших зайцу одолеть беду.

Качество видео: SATRip
Формат видео: AVI
Видео: 720x528 (1.36:1), 25 fps, XviD build 65 ~2389 kbps avg, 0.25 bit/pixel
Аудио: 48 kHz, AC3 Dolby Digital, 2/0 (L,R) ch, ~192 kbps
Доп. информация">

Скриншоты Доп. информация



Тип мультфильма: Кукольный
Студия: Куйбышевтелефильм
"Создатели"
Сценарий: В. Тихомиров
Художник-постановщик: В. Спичек
Художник-кукловод: Л. Жданов
Оператор: Анатолий Лобанов
Композитор: Владислав Казенин

MediaInfo

GeneralComplete name : Beda_1978_SATRip_Olu6ka.aviFormat : AVIFormat/Info : Audio Video InterleaveFile size : 288 MiBDuration : 15mn 31sOverall bit rate : 2 592 KbpsWriting application : VirtualDubMod 1.5.10.3Writing library : VirtualDubMod build 2550/release
VideoID : 0Format : MPEG-4 VisualFormat profile : Advanced Simple@L5Format settings, BVOP : 1Format settings, QPel : NoFormat settings, GMC : No warppointsFormat settings, Matrix : CustomCodec ID : XVIDCodec ID/Hint : XviDDuration : 15mn 31sBit rate : 2 390 KbpsWidth : 720 pixelsHeight : 528 pixelsDisplay aspect ratio : 4:3Frame rate : 25.000 fpsColor space : YUVChroma subsampling : 4:2:0Bit depth : 8 bitsScan type : ProgressiveCompression mode : LossyBits/(Pixel*Frame) : 0.251Stream size : 265 MiB (92%)Writing library : XviD 65
AudioID : 1Format : AC-3Format/Info : Audio Coding 3Mode extension : CM (complete main)Format settings, Endianness : BigCodec ID : 2000Duration : 15mn 31sBit rate mode : ConstantBit rate : 192 KbpsChannel(s) : 2 channelsChannel positions : Front: L RSampling rate : 48.0 KHzBit depth : 16 bitsCompression mode : LossyStream size : 21.3 MiB (7%)Alignment : Split accross interleavesInterleave, duration : 40 ms (1.00 video frame)Interleave, preload duration : 500 ms
Спасибо SLuMeP за исходникРелиз от группы
[Профиль] [ЛС]
Кто просматривает тему:

Форум Тема Автор Размер
Отечественные мультфильмы Беда (Александр Полушкин) [1978 г., мультфильм, DVB] TorrentFilm 371 MB
Показать сообщения:    

Текущее время: Сегодня 04:58

Часовой пояс: GMT



Вы не можете начинать темы
Вы не можете отвечать на сообщения
Вы не можете редактировать свои сообщения
Вы не можете удалять свои сообщения
Вы не можете голосовать в опросах
Вы не можете прикреплять файлы к сообщениям
Вы не можете скачивать файлы