Беда (Александр Полушкин) [1978 г., мультфильм, DVB]

 
Автор Сообщение

TorrentFilm ®

Пол:

Стаж: 2 года

Сообщений: 7741



Награды: Нет

Торрент-статистика

Создавать темы 01-Янв-2016 00:19

[Цитировать]

Беда
Жанр: мультфильм
Год выпуска: 1978
Продолжительность: 00:15:31
Режиссёр: Александр Полушкин
Описание: мультфильм о друзьях, помогавших зайцу одолеть беду ...
Доп. информация: по мотивам сказок братьев Бондаренко

Релиз группы:
Трансляция спутникового канала: "Карусель"
Качество видео: DVB
Формат видео: MPEG-PS
Видео: MPEG2 Video, 720x576, 25 fps, 3100 kbps
Аудио: MPEG Audio, 2 сh, 48 kHz, 192 kbps

MediaInfo

D:\Беда. (1978)_DVB by SLuMeP.mpg
General
Complete name : D:\Беда. (1978)_DVB by SLuMeP.mpg
Format : MPEG-PS
File size : 371 MiB
Duration : 15mn 31s
Overall bit rate mode : Variable
Overall bit rate : 3 342 Kbps
Video #224
ID : 224 (0xE0)
Format : MPEG Video
Format version : Version 2
Format profile : Main@Main
Format settings, BVOP : Yes
Format settings, Matrix : Custom
Duration : 15mn 31s
Bit rate mode : Variable
Bit rate : 3 083 Kbps
Maximum bit rate : 5 000 Kbps
Width : 720 pixels
Height : 576 pixels
Display aspect ratio : 4:3
Frame rate : 25.000 fps
Standard : PAL
Color space : YUV
Chroma subsampling : 4:2:0
Bit depth : 8 bits
Scan type : Interlaced
Scan order : Top Field First
Compression mode : Lossy
Bits/(Pixel*Frame) : 0.297
Stream size : 342 MiB (92%)
Audio #192
ID : 192 (0xC0)
Format : MPEG Audio
Format version : Version 1
Format profile : Layer 2
Duration : 15mn 31s
Bit rate mode : Constant
Bit rate : 192 Kbps
Channel(s) : 2 channels
Sampling rate : 48.0 KHz
Compression mode : Lossy
Stream size : 21.3 MiB (6%)

Скриншоты

[Профиль] [ЛС]
Кто просматривает тему:

Форум Тема Автор Размер
Отечественные мультфильмы Беда (Александр Полушкин) [1978 г., мультфильм, SATRip] TorrentFilm 288 MB
Показать сообщения:    

Текущее время: Сегодня 13:51

Часовой пояс: GMT



Вы не можете начинать темы
Вы не можете отвечать на сообщения
Вы не можете редактировать свои сообщения
Вы не можете удалять свои сообщения
Вы не можете голосовать в опросах
Вы не можете прикреплять файлы к сообщениям
Вы не можете скачивать файлы