Бегущий за ветром / The Kite Runner (Марк Форстер / Marc Forster) [2007, США, драма, HDRip] MVO (Paramount channel) + Original Eng

 
Автор Сообщение

TorrentFilm ®

Пол:

Стаж: 1 год 11 месяцев

Сообщений: 7741



Награды: Нет

Торрент-статистика

Создавать темы 21-Дек-2014 02:15

[Цитировать]

Бегущий за ветром / The Kite Runner
Страна: США
Студия: DreamWorks SKG, Sidney Kimmel Entertainment, Participant Media
Жанр: драма
Год выпуска: 2007
Продолжительность: 02:07:43
Перевод: Профессиональный (многоголосый закадровый) Paramount channel
Cубтитры: нет
Оригинальная аудиодорожка: английский
Режиссер: Марк Форстер / Marc Forster
В ролях: Халид Абдалла, Атоша Леони, Шон Туб, Зекирия Ибрахими, Хомайон Эршади, Ахмад Хан Махмудзада
Описание: История о дружбе, предательстве, чувстве вины и грехах отцов, которые ложатся на детей. Главные герои - Амир и Хасан, два мальчика, живущих бок о бок с рождения. Но один - сын аристократа, а другой - его слуга. Место и время: Кабул до и после войны, вторжения советских войск и власти талибов. 12 лет Амир и Хасан были неразлучны, но ни разу за это время Амир не назвал Хасана своим другом, а ведь тот был готов отдать жизнь за хозяина. Соревнования по запуску воздушных змеев - любимая забава кабульских мальчишек - становится не только точкой невозврата, после которой в жизни Амира и Хасана все меняется. Полеты змеев также являются метафорой судеб этих мальчишек, унесенных ветрами в разные стороны света.
II Сэмпл II IMDB II
Доп. информация:
За исходник спасибо Nightmare564
Звук записан с т/к Paramount channel
Качество видео: HDRip
Формат видео: AVI
Видео: Xvid 720x304 (2.37:1) 24.0fps Bit rate 1797Kbps b/p 0.342
Аудио 1: AC3 48.0 KHz 2ch. 192kbps rus mvo
Аудио 2: AC3 48.0 KHz 6ch. 448kbps eng

MediaInfo

Общее
Полное имя : E:\torrent\The Kite Runner.2007.HDRip.avi
Формат : AVI
Формат/Информация : Audio Video Interleave
Профиль формата : OpenDML
Размер файла : 2,19 Гбайт
Продолжительность : 2 ч. 7 м.
Общий поток : 2455 Кбит/сек
Программа кодирования : VirtualDubMod 1.5.10.3 (build 2550/release)
Библиотека кодирования : VirtualDubMod build 2550/release
Видео
Идентификатор : 0
Формат : MPEG-4 Visual
Профиль формата : Advanced Simple@L5
Параметр BVOP формата : 2
Параметр QPel формата : Нет
Параметр GMC формата : Без точки перехода
Параметр матрицы формата : Default (MPEG)
Идентификатор кодека : XVID
Идентификатор кодека/Подсказка : XviD
Продолжительность : 2 ч. 7 м.
Битрейт : 1797 Кбит/сек
Ширина : 720 пикселей
Высота : 304 пикселя
Соотношение сторон : 2,35:1
Частота кадров : 24,000 кадра/сек
Цветовое пространство : YUV
Субдискретизация насыщенности : 4:2:0
Битовая глубина : 8 бит
Тип развёртки : Прогрессивная
Метод сжатия : С потерями
Бит/(Пиксели*Кадры) : 0.342
Размер потока : 1,60 Гбайт (73%)
Библиотека кодирования : XviD 1.2.1 (UTC 2008-12-04)
Аудио #1
Идентификатор : 1
Формат : AC-3
Формат/Информация : Audio Coding 3
Расширение режима : CM (complete main)
Параметр Endianness формата : Big
Идентификатор кодека : 2000
Продолжительность : 2 ч. 7 м.
Вид битрейта : Постоянный
Битрейт : 192 Кбит/сек
Каналы : 2 канала
Расположение каналов : Front: L R
Частота : 48,0 КГц
Битовая глубина : 16 бит
Метод сжатия : С потерями
Размер потока : 175 Мбайт (8%)
Выравнивание : Разделение по промежуткам
Продолжительность промежутка : 42 мс. (1,00 видеокадр)
Время предзагрузки промежутка : 500 мс.
Аудио #2
Идентификатор : 2
Формат : AC-3
Формат/Информация : Audio Coding 3
Расширение режима : CM (complete main)
Параметр Endianness формата : Big
Идентификатор кодека : 2000
Продолжительность : 2 ч. 7 м.
Вид битрейта : Постоянный
Битрейт : 448 Кбит/сек
Каналы : 6 каналов
Расположение каналов : Front: L C R, Side: L R, LFE
Частота : 48,0 КГц
Битовая глубина : 16 бит
Метод сжатия : С потерями
Размер потока : 409 Мбайт (18%)
Выравнивание : Разделение по промежуткам
Продолжительность промежутка : 42 мс. (1,00 видеокадр)
Время предзагрузки промежутка : 500 мс.

Скриншот c названием фильма

Скриншоты


[Профиль] [ЛС]

Создавать темы 06-Авг-2015 22:53 (спустя 7 месяцев 16 дней)

Топик был перенесен из форума Фильмы до 2014 года в форум Фильмы до 2012 года
sergej644
 
Кто просматривает тему:

Форум Тема Автор Размер
Фильмы (HD Rips | 720p, 1080p) Бегущий в лабиринте / The Maze Runner (2014) BDRip 1080p | iTunes sergej644 8.02 GB
Фильмы (HD Rips | 720p, 1080p) Бегущий в лабиринте / The Maze Runner (2014) BDRip [1080p] sergej644 11.85 GB
Фильмы (HD Rips | 720p, 1080p) Бегущий в лабиринте / The Maze Runner (2014) BDRip-AVC от R.G. HD-Films | 60 fps | Лицензия sergej644 3.82 GB
Фильмы 2014 года Бегущий в лабиринте / The Maze Runner (Уэс Болл / Wes Ball) [2014, США, Великобритания, Канада, фантастика, триллер, приключения, BDRip-AVC] Dub (Rus) + Dub (Urk) + Original (Eng) + Subs TorrentFilm 2.61 GB
Фильмы 2014 года Бегущий в лабиринте / The Maze Runner (Уэс Болл / Wes Ball) [2014, США, Великобритания, Канада, фантастика, триллер, приключения, BDRip-AVC] Dub + Dub Ukr + Sub Rus, Ukr, Eng + Original Eng TorrentFilm 2.27 GB
Фильмы 2014 года Бегущий в лабиринте / The Maze Runner (Уэс Болл / Wes Ball) [2014, США, Великобритания, Канада, Фантастика, триллер, приключения, BDRip-AVC] Dub + Sub Rus,Eng + Original Eng TorrentFilm 2.74 GB
Фильмы 2014 года Бегущий в лабиринте / The Maze Runner (Уэс Болл / Wes Ball) [2014, США, Великобритания, Канада, Фантастика, триллер, приключения, BDRip] Dub TorrentFilm 1.46 GB
Зарубежные Бегущий в лабиринте / The Maze Runner (Уэс Болл / Wes Ball) [2014, США, Великобритания, Канада, Фантастика, триллер, приключения, Blu-ray disc 1080p] CEE [EUR] TorrentFilm 43.25 GB
Показать сообщения:    

Текущее время: Сегодня 18:20

Часовой пояс: GMT



Вы не можете начинать темы
Вы не можете отвечать на сообщения
Вы не можете редактировать свои сообщения
Вы не можете удалять свои сообщения
Вы не можете голосовать в опросах
Вы не можете прикреплять файлы к сообщениям
Вы не можете скачивать файлы