Бегущий в лабиринте / The Maze Runner (Уэс Болл / Wes Ball) [2014, США, Великобритания, Канада, Фантастика, триллер, приключения, BDRip-AVC] Dub + Sub Rus,Eng + Original Eng

 
Автор Сообщение

TorrentFilm ®

Пол:

Стаж: 1 год 11 месяцев

Сообщений: 7741



Награды: Нет

Торрент-статистика

Создавать темы 30-Дек-2014 00:02

[Цитировать]

Бегущий в лабиринтеThe Maze Runner«Только не останавливайся»
Страна: США, Великобритания, Канада
Жанр: Фантастика, триллер, приключения
Год выпуска: 2014
Продолжительность: 01:53:26
Перевод: Профессиональный (дублированный) [Blu-ray ]
Cубтитры: русские,английские
Режиссер: Уэс Болл / Wes Ball
В ролях: Дилан О’Брайен, Томас Сэнгстер, Кая Скоделарио, Уилл Поултер, Ки Хонг Ли, Блейк Купер, Амл Амин, Алекс Дж. Флорес, Джейкоб Латимор, Патришия Кларксон
Описание: Главный герой — подросток Томас, который просыпается в лифте, но ничего не помнит, кроме своего имени. Он оказывается среди 60 подростков, научившихся выживать в замкнутом пространстве. Раз в 30 дней прибывает новый мальчик. Группа ребят проживает в «Приюте» уже три года. Они кормятся тем, что удается вырастить на земле, и пытаются найти выход из лабиринта, окружающего их место жительства. Но однажды появляется девочка в состоянии комы...
Доп. информация:
Релиз группы:
Качество видео: BDRip-AVC |Бегущий в лабиринте / The Maze Runner (2014) Blu-ray EUR 1080p AVC DTS 5.1| HD club
Формат видео: MKV
Видео: 1152x480 (2:40:1), 23,976 fps, 2495 Кbps, 0.188 bit/pixe
Аудио: 48 kHz, AC3 Dolby Digital, 3/2 (L,C,R,l,r) + LFE ch, ~448.00 kbps avg | DUB
Аудио 2: 48 kHz, AC3 Dolby Digital, 3/2 (L,C,R,l,r) + LFE ch, ~448.00 kbps avg | ENG

MediaInfo

General
Unique ID : 244407887460299604291136387114893780724 (0xB7DF3F35857A13FE93F9AE31F25B26F4)
Complete name : E:\Мои рипы\Бегущий в лабиринте\Бегущий в лабиринте by_IVAN@190282.mkv
Format : Matroska
Format version : Version 4 / Version 2
File size : 2.74 GiB
Duration : 1h 53mn
Overall bit rate : 3 460 Kbps
Encoded date : UTC 2014-12-25 16:28:42
Writing application : mkvmerge v7.0.0 ('Where We Going') 64bit built on Jun 9 2014 15:16:27
Writing library : libebml v1.3.0 + libmatroska v1.4.1
DURATION : 01:45:33.493000000
NUMBER_OF_FRAMES : 1526
NUMBER_OF_BYTES : 45841
_STATISTICS_WRITING_APP : mkvmerge v7.0.0 ('Where We Going') 64bit built on Jun 9 2014 15:16:27
_STATISTICS_WRITING_DATE_UTC : 2014-12-25 16:28:42
_STATISTICS_TAGS : BPS DURATION NUMBER_OF_FRAMES NUMBER_OF_BYTES
Video
ID : 1
Format : AVC
Format/Info : Advanced Video Codec
Format profile : High@L4.1
Format settings, CABAC : Yes
Format settings, ReFrames : 13 frames
Codec ID : V_MPEG4/ISO/AVC
Duration : 1h 53mn
Bit rate : 2 495 Kbps
Width : 1 152 pixels
Height : 480 pixels
Display aspect ratio : 2.40:1
Frame rate mode : Constant
Frame rate : 23.976 fps
Color space : YUV
Chroma subsampling : 4:2:0
Bit depth : 8 bits
Scan type : Progressive
Bits/(Pixel*Frame) : 0.188
Stream size : 1.98 GiB (72%)
Writing library : x264 core 144 r2525kMod 40bb568
Encoding settings : cabac=1 / ref=13 / deblock=1:-3:-3 / analyse=0x3:0x113 / me=umh / subme=11 / psy=1 / fade_compensate=0.00 / psy_rd=1.00:0.15 / mixed_ref=1 / me_range=48 / chroma_me=1 / trellis=2 / 8x8dct=1 / cqm=0 / deadzone=21,11 / fast_pskip=0 / chroma_qp_offset=0 / threads=6 / lookahead_threads=6 / sliced_threads=0 / slices=10 / nr=0 / decimate=1 / interlaced=0 / bluray_compat=0 / constrained_intra=0 / fgo=0 / bframes=16 / b_pyramid=2 / b_adapt=2 / b_bias=0 / direct=1 / weightb=1 / open_gop=1 / weightp=2 / keyint=240 / keyint_min=23 / scenecut=40 / intra_refresh=0 / rc_lookahead=40 / rc=crf / mbtree=0 / crf=17.0000 / qcomp=0.60 / qpmin=0 / qpmax=69 / qpstep=4 / vbv_maxrate=50000 / vbv_bufsize=62500 / crf_max=0.0 / nal_hrd=none / filler=0 / ip_ratio=1.40 / pb_ratio=1.30 / aq=1:1.00
Default : Yes
Forced : No
Color primaries : BT.709
Transfer characteristics : BT.709
Matrix coefficients : BT.709
Audio #1
ID : 2
Format : AC-3
Format/Info : Audio Coding 3
Mode extension : CM (complete main)
Format settings, Endianness : Big
Codec ID : A_AC3
Duration : 1h 53mn
Bit rate mode : Constant
Bit rate : 448 Kbps
Channel(s) : 6 channels
Channel positions : Front: L C R, Side: L R, LFE
Sampling rate : 48.0 KHz
Bit depth : 16 bits
Compression mode : Lossy
Stream size : 364 MiB (13%)
Title : Dub
Default : Yes
Forced : No
Audio #2
ID : 3
Format : AC-3
Format/Info : Audio Coding 3
Mode extension : CM (complete main)
Format settings, Endianness : Big
Codec ID : A_AC3
Duration : 1h 53mn
Bit rate mode : Constant
Bit rate : 448 Kbps
Channel(s) : 6 channels
Channel positions : Front: L C R, Side: L R, LFE
Sampling rate : 48.0 KHz
Bit depth : 16 bits
Compression mode : Lossy
Stream size : 364 MiB (13%)
Title : Eng
Default : No
Forced : No
Text #1
ID : 4
Format : UTF-8
Codec ID : S_TEXT/UTF8
Codec ID/Info : UTF-8 Plain Text
Title : Rus
Default : Yes
Forced : No
Text #2
ID : 5
Format : UTF-8
Codec ID : S_TEXT/UTF8
Codec ID/Info : UTF-8 Plain Text
Title : Eng
Default : No
Forced : No

x264 log

VIDEO ENCODING
x264 [info]: frame I:1103 Avg QP:13.39 size: 75167
x264 [info]: frame P:39838 Avg QP:14.81 size: 26860
x264 [info]: frame B:122259 Avg QP:17.20 size: 8387
x264 [info]: consecutive B-frames: 3.9% 4.8% 9.7% 25.0% 17.5% 23.0% 5.6% 5.4% 1.6% 0.8% 0.4% 1.1% 0.2% 0.2% 0.1% 0.1% 0.7%
x264 [info]: kb/s:2560.26
x264 [total]: encoded 163200 frames, 3.90 fps, 2560.26 kb/s, duration 11:36:39.82

Скриншот c названием фильма

Скриншоты

[Профиль] [ЛС]
Кто просматривает тему:

Форум Тема Автор Размер
Фильмы (HD Rips | 720p, 1080p) Бегущий в лабиринте / The Maze Runner (2014) BDRip 1080p | iTunes sergej644 8.02 GB
Фильмы (HD Rips | 720p, 1080p) Бегущий в лабиринте / The Maze Runner (2014) BDRip [1080p] sergej644 11.85 GB
Фильмы (HD Rips | 720p, 1080p) Бегущий в лабиринте / The Maze Runner (2014) BDRip-AVC от R.G. HD-Films | 60 fps | Лицензия sergej644 3.82 GB
Фильмы 2014 года Бегущий в лабиринте / The Maze Runner (Уэс Болл / Wes Ball) [2014, США, Великобритания, Канада, фантастика, триллер, приключения, BDRip-AVC] Dub (Rus) + Dub (Urk) + Original (Eng) + Subs TorrentFilm 2.61 GB
Фильмы 2014 года Бегущий в лабиринте / The Maze Runner (Уэс Болл / Wes Ball) [2014, США, Великобритания, Канада, фантастика, триллер, приключения, BDRip-AVC] Dub + Dub Ukr + Sub Rus, Ukr, Eng + Original Eng TorrentFilm 2.27 GB
Фильмы 2014 года Бегущий в лабиринте / The Maze Runner (Уэс Болл / Wes Ball) [2014, США, Великобритания, Канада, Фантастика, триллер, приключения, BDRip] Dub TorrentFilm 1.46 GB
Зарубежные Бегущий в лабиринте / The Maze Runner (Уэс Болл / Wes Ball) [2014, США, Великобритания, Канада, Фантастика, триллер, приключения, Blu-ray disc 1080p] CEE [EUR] TorrentFilm 43.25 GB
Фильмы 2014 года Бегущий в лабиринте / The Maze Runner (Уэс Болл / Wes Ball) [2014, США, Великобритания, Канада, Фантастика, триллер, приключения, HDRip] Dub TorrentFilm 745 MB
Показать сообщения:    

Текущее время: Сегодня 14:03

Часовой пояс: GMT



Вы не можете начинать темы
Вы не можете отвечать на сообщения
Вы не можете редактировать свои сообщения
Вы не можете удалять свои сообщения
Вы не можете голосовать в опросах
Вы не можете прикреплять файлы к сообщениям
Вы не можете скачивать файлы