Бегущий в лабиринте / The Maze Runner (2014) BDRip [1080p]

 
Автор Сообщение

sergej644 ®

Пол:

Стаж: 4 года 11 месяцев

Сообщений: 6046

Откуда: Soviet Union



Награды: Нет

Торрент-статистика

Создавать темы 18-Дек-2014 12:10

[Цитировать]

-Бегущий в лабиринте / The Maze Runner (2014) BDRip [1080p]-Год выпуска: 2014
Производство: США, Великобритания, Канада
Жанр: Фантастика, Триллер, Приключения
Перевод: Дублированный (Лицензия)
Субтитры: Вшитые отключаемые
Язык субтитров: Русский, украинский, английский
Режиссер: Уэс Болл
Продюсер: Марти Бауэн, Вик Годфри, Эллен Голдсмит-Вейн
Актеры: Дилан О’Брайен, Томас Сэнгстер, Кая Скоделарио, Уилл Поултер, Ки Хонг Ли, Блейк Купер, Амл Амин, Алекс Дж. Флорес, Джейкоб Латимор, Патришия Кларксон
Описание фильма:
Главный герой — подросток Томас, который просыпается в лифте, но ничего не помнит, кроме своего имени. Он оказывается среди 60 подростков, научившихся выживать в замкнутом пространстве. Раз в 30 дней прибывает новый мальчик. Группа ребят проживает в «Приюте» уже три года. Они кормятся тем, что удается вырастить на земле, и пытаются найти выход из лабиринта, окружающего их место жительства. Но однажды появляется девочка в состоянии комы…

Дата мировой премьеры: 11 сентября 2014
Дата российской премьеры: 18 сентября 2014, «Двадцатый Век Фокс СНГ»
Дата украинской премьеры: 18 сентября 2014, «Ukrainian Film Distribution»
Дата выхода DVD/Blu-Ray релиза: 18 декабря 2014, «Двадцатый Век Фокс СНГ»
Продолжительность: 01:53:26
Качество видео: BDRip [1080p]
Видеокодек: MPEG-4 AVC/H.264
Битрейт видео: ~12260 kbps
Размер кадра: 1920x800
Аудио #1: Русский: 48 kHz, DTS, 3/2 (L,C,R,l,r) + LFE ch, ~768.00 kbps avg - (Дубляж, Blu-ray EUR)
Аудио #2: Украинский: 48 kHz, AC3, 2/0 (L,R) ch, ~192.00 kbps avg - (Дубляж, iTunes Russia)
Аудио #3: Английский: 48 kHz, DTS, 3/2 (L,C,R,l,r) + LFE ch, ~1536.00 kbps avg - (Original)
Аудио #4: Английский: 48 kHz, AC3, 2/0 (L,R) ch, ~224.00 kbps avg - (Commentary by Wes Ball and T.S. Nowlin)
Сэмпл: Скачать

Знаете ли вы, что...:

• Фильм снят по мотивам романа Джеймса Дашнера «Бегущий в лабиринте» (The Maze Runner, 2009).
• Из всех британских актеров только Томас Сэнгстер, который играет Ньюта, говорит в фильме с британским акцентом.
• Брентон Туэйтес и Коннор Паоло пробовались на роль Томаса, доставшуюся в итоге Дилану О’Брайену.
• Изначально Уэс Болл общался с представителями студии 20th Century Fox о том, чтобы снять полнометражную версию его фильма — «Руины» (2012). В итоге ему предложили стать режиссером «Бегущего в лабиринте» (2014), и он согласился.
• Съемки фильма начались в мае 2013 года и продолжались 42 дня.
• В апреле 2014 года стартовала вирусная рекламная кампания с запуском в интернете сайта об организации П. О. Р. О. К. (W.C.K.D.) — wckdisgood.com.
• Изначально планировалось, что режиссером фильма станет Кэтрин Хардвик.
• 25 июля 2014 года на конвенте Comic-Con в Сан-Диего в рамках презентации студии 20th Century Fox состоялось представление фильма, на котором присутствовали автор книги Джеймс Дашнер, режиссер фильма Уэс Болл и исполнители главных ролей Дилан О’Брайен, Кая Скоделарио и Уилл Поултер.
• Прическа Дилана О’Брайена едва не стоила ему роли Томаса. Режиссеру Уэсу Боллу не понравился его «MTV»-стиль. Болл пересмотрел свое мнение, когда ему прислали фото О’Брайена, где его волосы не были уложены гелем.
• Лес и луг Глейда снимались на природе в штате Луизиана. Там водилось столько ядовитых змей, что каждый день перед началом работы по съемочной площадке проходил серпентолог и собирал заползших «в гости» гадов, чтобы обезопасить членов группы. Всего было найдено 25 ядовитых змей. Самая большая из них была полутораметровая гремучая змея.
• Для подготовки к съемкам режиссер Уэс Болл обязал актеров провести ночь в лагере, разбитом на месте проведения съемок.
• Чтобы получить роль Чака актер Блейк Купер добивался прослушивания через Твиттер. Он долгое время засыпал режиссера Уэса Болла твиттами, в которых говорил, что просто создан для этой роли. В итоге Уэс Болл смилостивился над Купером и сказал ему отправить свою запись начальнику актерского отдела, который заявил, что Купер – идеальный Чак.
• Трое детей Вика Годфри, прочитавшие книгу, по которой снят фильм, помогали ему советами во время отбора актеров. Он показывал им записи прослушиваний, а затем выслушивал их отзывы.
• Стены и двери декораций Лабиринта были 6 метров в высоту. Создатели фильма использовали оптические трюки и компьютерную графику, чтобы декорации показались 30-метровыми.

MediaInfo:

Общее
Уникальный идентификатор : 213237062153653058262821114914085645696 (0xA06BF6DE0902C57DAA6D28338B71AD80)
Полное имя : D:\Фильмы\Begushiy.v.labirinte.2014.BDRip.1080p.mkv
Формат : Matroska
Версия формата : Version 2
Размер файла : 11,9 Гбайт
Продолжительность : 1 ч. 53 м.
Общий поток : 15,0 Мбит/сек
Название фильма : The Maze Runner (2014) - Release for HDCLUB
Дата кодирования : UTC 2014-12-17 22:33:29
Программа кодирования : mkvmerge v3.4.0 ('Rapunzel') built on May 15 2010 09:38:20
Библиотека кодирования : libebml v0.8.0 + libmatroska v0.9.0
Attachment : Yes / Yes
Видео
Идентификатор : 1
Формат : AVC
Формат/Информация : Advanced Video Codec
Профиль формата : [url=mailto:High@L4.1]High@L4.1[/url]
Параметр CABAC формата : Да
Параметр ReFrames формата : 5 кадров
Идентификатор кодека : V_MPEG4/ISO/AVC
Продолжительность : 1 ч. 53 м.
Битрейт : 12,0 Мбит/сек
Ширина : 1920 пикселей
Высота : 800 пикселей
Соотношение сторон : 2,40:1
Режим частоты кадров : Постоянный
Частота кадров : 23,976 кадра/сек
Цветовое пространство : YUV
Субдискретизация насыщенности : 4:2:0
Битовая глубина : 8 бит
Тип развёртки : Прогрессивная
Бит/(Пиксели*Кадры) : 0.325
Размер потока : 9,48 Гбайт (80%)
Заголовок : The Maze Runner (2014) - Release for HDCLUB
Библиотека кодирования : x264 core 142 r2491 24e4fed
Настройки программы : cabac=1 / ref=5 / deblock=1:-3:-3 / analyse=0x3:0x133 / me=umh / subme=11 / psy=1 / psy_rd=1.00:0.00 / mixed_ref=1 / me_range=32 / chroma_me=1 / trellis=2 / 8x8dct=1 / cqm=0 / deadzone=21,11 / fast_pskip=1 / chroma_qp_offset=-2 / threads=12 / lookahead_threads=2 / sliced_threads=0 / nr=0 / decimate=1 / interlaced=0 / bluray_compat=0 / constrained_intra=0 / bframes=9 / b_pyramid=2 / b_adapt=2 / b_bias=0 / direct=1 / weightb=1 / open_gop=0 / weightp=2 / keyint=250 / keyint_min=23 / scenecut=40 / intra_refresh=0 / rc_lookahead=60 / rc=crf / mbtree=0 / crf=15.5 / qcomp=0.70 / qpmin=0 / qpmax=69 / qpstep=4 / vbv_maxrate=62500 / vbv_bufsize=78125 / crf_max=0.0 / nal_hrd=none / filler=0 / ip_ratio=1.40 / pb_ratio=1.30 / aq=1:0.90
Язык : English
Default : Да
Forced : Нет
Основные цвета : BT.709
Характеристики трансфера : BT.709
Коэффициенты матрицы : BT.709
Аудио #1
Идентификатор : 2
Формат : DTS
Формат/Информация : Digital Theater Systems
Режим : 16
Параметр Endianness формата : Big
Идентификатор кодека : A_DTS
Продолжительность : 1 ч. 53 м.
Вид битрейта : Постоянный
Битрейт : 768 Кбит/сек
Каналы : 6 каналов
Расположение каналов : Front: L C R, Side: L R, LFE
Частота : 48,0 КГц
Битовая глубина : 24 бит
Метод сжатия : С потерями
Размер потока : 623 Мбайт (5%)
Заголовок : DTS 5.1 @ 768 kbps - DUB, Blu-ray EUR
Язык : Russian
Default : Да
Forced : Нет
Аудио #2
Идентификатор : 3
Формат : AC-3
Формат/Информация : Audio Coding 3
Расширение режима : CM (complete main)
Параметр Endianness формата : Big
Идентификатор кодека : A_AC3
Продолжительность : 1 ч. 53 м.
Вид битрейта : Постоянный
Битрейт : 192 Кбит/сек
Каналы : 2 канала
Расположение каналов : Front: L R
Частота : 48,0 КГц
Битовая глубина : 16 бит
Метод сжатия : С потерями
Размер потока : 156 Мбайт (1%)
Заголовок : AC3 2.0 @ 192 kbps - DUB, iTunes
Язык : Ukrainian
Default : Нет
Forced : Нет
Аудио #3
Идентификатор : 4
Формат : DTS
Формат/Информация : Digital Theater Systems
Профиль формата : ES
Режим : 16
Параметр Endianness формата : Big
Идентификатор кодека : A_DTS
Продолжительность : 1 ч. 53 м.
Вид битрейта : Постоянный
Битрейт : 1509 Кбит/сек
Каналы : 6 каналов
Расположение каналов : Front: L C R, Side: L R, LFE
Частота : 48,0 КГц
Битовая глубина : 24 бит
Метод сжатия : С потерями
Задержка видео : 11 мс.
Размер потока : 1,20 Гбайт (10%)
Заголовок : DTS 5.1 @ 1536 kbps
Язык : English
Default : Нет
Forced : Нет
Аудио #4
Идентификатор : 5
Формат : AC-3
Формат/Информация : Audio Coding 3
Расширение режима : CM (complete main)
Параметр Endianness формата : Big
Идентификатор кодека : A_AC3
Продолжительность : 1 ч. 53 м.
Вид битрейта : Постоянный
Битрейт : 224 Кбит/сек
Каналы : 2 канала
Расположение каналов : Front: L R
Частота : 48,0 КГц
Битовая глубина : 16 бит
Метод сжатия : С потерями
Размер потока : 182 Мбайт (1%)
Заголовок : AC3 2.0 @ 224 kbps - Commentary by Wes Ball and T.S. Nowlin
Язык : English
Default : Нет
Forced : Нет
Текст #1
Идентификатор : 6
Формат : UTF-8
Идентификатор кодека : S_TEXT/UTF8
Идентификатор кодека/Информация : UTF-8 Plain Text
Язык : Russian
Default : Нет
Forced : Нет
Текст #2
Идентификатор : 7
Формат : UTF-8
Идентификатор кодека : S_TEXT/UTF8
Идентификатор кодека/Информация : UTF-8 Plain Text
Язык : Ukrainian
Default : Нет
Forced : Нет
Текст #3
Идентификатор : 8
Формат : UTF-8
Идентификатор кодека : S_TEXT/UTF8
Идентификатор кодека/Информация : UTF-8 Plain Text
Язык : English
Default : Нет
Forced : Нет
Текст #4
Идентификатор : 9
Формат : UTF-8
Идентификатор кодека : S_TEXT/UTF8
Идентификатор кодека/Информация : UTF-8 Plain Text
Заголовок : SDH
Язык : English
Default : Нет
Forced : Нет
Текст #5
Идентификатор : 10
Формат : UTF-8
Идентификатор кодека : S_TEXT/UTF8
Идентификатор кодека/Информация : UTF-8 Plain Text
Заголовок : SDH-COLORED
Язык : English
Default : Нет
Forced : Нет
Текст #6
Идентификатор : 11
Формат : UTF-8
Идентификатор кодека : S_TEXT/UTF8
Идентификатор кодека/Информация : UTF-8 Plain Text
Заголовок : Commentary
Язык : English
Default : Нет
Forced : Нет
Меню
00:00:00.000 : en:Chapter 1
00:03:12.650 : en:Chapter 2
00:07:15.977 : en:Chapter 3
00:10:25.249 : en:Chapter 4
00:14:15.563 : en:Chapter 5
00:17:21.248 : en:Chapter 6
00:19:33.338 : en:Chapter 7
00:23:21.024 : en:Chapter 8
00:24:36.391 : en:Chapter 9
00:28:13.108 : en:Chapter 10
00:31:26.009 : en:Chapter 11
00:34:12.050 : en:Chapter 12
00:37:11.812 : en:Chapter 13
00:41:00.875 : en:Chapter 14
00:42:16.617 : en:Chapter 15
00:45:47.453 : en:Chapter 16
00:48:31.825 : en:Chapter 17
00:52:57.799 : en:Chapter 18
00:55:21.776 : en:Chapter 19
00:57:58.808 : en:Chapter 20
00:59:31.150 : en:Chapter 21
01:01:35.274 : en:Chapter 22
01:05:13.910 : en:Chapter 23
01:08:42.409 : en:Chapter 24
01:12:14.246 : en:Chapter 25
01:14:22.833 : en:Chapter 26
01:20:27.823 : en:Chapter 27
01:22:25.649 : en:Chapter 28
01:25:38.174 : en:Chapter 29
01:29:41.584 : en:Chapter 30
01:33:49.457 : en:Chapter 31
01:36:43.255 : en:Chapter 32
01:39:33.425 : en:Chapter 33
01:43:05.596 : en:Chapter 34
01:45:08.218 : en:Chapter 35
01:46:12.657 : en:Chapter 36
Релиз группа: HDCLUB
Скриншоты: Время раздачи: 24/7
(до 5 скачавших)
--
[Профиль] [ЛС]
Кто просматривает тему:

Форум Тема Автор Размер
Фильмы (HD Rips | 720p, 1080p) Бегущий в лабиринте / The Maze Runner (2014) BDRip 1080p | iTunes sergej644 8.02 GB
Фильмы (HD Rips | 720p, 1080p) Бегущий в лабиринте / The Maze Runner (2014) BDRip-AVC от R.G. HD-Films | 60 fps | Лицензия sergej644 3.82 GB
Фильмы 2014 года Бегущий в лабиринте / The Maze Runner (Уэс Болл / Wes Ball) [2014, США, Великобритания, Канада, фантастика, триллер, приключения, BDRip-AVC] Dub (Rus) + Dub (Urk) + Original (Eng) + Subs TorrentFilm 2.61 GB
Фильмы 2014 года Бегущий в лабиринте / The Maze Runner (Уэс Болл / Wes Ball) [2014, США, Великобритания, Канада, фантастика, триллер, приключения, BDRip-AVC] Dub + Dub Ukr + Sub Rus, Ukr, Eng + Original Eng TorrentFilm 2.27 GB
Фильмы 2014 года Бегущий в лабиринте / The Maze Runner (Уэс Болл / Wes Ball) [2014, США, Великобритания, Канада, Фантастика, триллер, приключения, BDRip-AVC] Dub + Sub Rus,Eng + Original Eng TorrentFilm 2.74 GB
Фильмы 2014 года Бегущий в лабиринте / The Maze Runner (Уэс Болл / Wes Ball) [2014, США, Великобритания, Канада, Фантастика, триллер, приключения, BDRip] Dub TorrentFilm 1.46 GB
Зарубежные Бегущий в лабиринте / The Maze Runner (Уэс Болл / Wes Ball) [2014, США, Великобритания, Канада, Фантастика, триллер, приключения, Blu-ray disc 1080p] CEE [EUR] TorrentFilm 43.25 GB
Фильмы 2014 года Бегущий в лабиринте / The Maze Runner (Уэс Болл / Wes Ball) [2014, США, Великобритания, Канада, Фантастика, триллер, приключения, HDRip] Dub TorrentFilm 745 MB
Показать сообщения:    

Текущее время: Сегодня 05:20

Часовой пояс: GMT



Вы не можете начинать темы
Вы не можете отвечать на сообщения
Вы не можете редактировать свои сообщения
Вы не можете удалять свои сообщения
Вы не можете голосовать в опросах
Вы не можете прикреплять файлы к сообщениям
Вы не можете скачивать файлы