Бегущий в лабиринте / The Maze Runner (2014) BDRip 1080p | iTunes

 
Автор Сообщение

sergej644 ®

Пол:

Стаж: 4 года 11 месяцев

Сообщений: 6038

Откуда: Soviet Union



Награды: Нет

Торрент-статистика

Создавать темы 02-Дек-2014 09:26

[Цитировать]

Информация о фильме
Название: Бегущий в лабиринте
Оригинальное название: The Maze Runner
Год выпуска: 2014
Жанр: Фантастика, боевик, триллер, детектив
Режиссер: Уэс Болл
В ролях: Дилан О’Брайэн, Кая Скоделарио, Уилл Поултер, Томас Сэнгстер, Патришия Кларксон, Ки Хонг Ли, Амл Амин, Блейк Купер, Крис Шеффилд, Карл Грин
О фильме: Главный герой - подросток Томас, который просыпается в лифте, но ничего не помнит, кроме своего имени. Он оказывается среди 60 подростков, научившихся выживать в замкнутом пространстве. Раз в 30 дней прибывает новый мальчик. Группа ребят проживает в «Приюте» уже два года. Они кормятся тем, что удается вырастить на земле, и пытаются найти выход из лабиринта, окружающего их место жительства. Но однажды появляется девочка в состоянии комы…

Выпущено: США / 20th Century Fox, Gotham Group, Temple Hill Entertainment
Продолжительность: 01:53:26
Перевод: Профессиональный (полное дублирование) - iTunes
Файл
Качество: BDRip 1080p
Формат: MKV
Видео: MPEG4/AVC, 1920x800 (2.40:1), 9097 Кбит/сек, 23.976 кадра/сек
Аудио 1: AC3, 6 каналов, 384 Кбит/сек | Русский
Аудио 2: AC3, 6 каналов, 640 Кбит/сек | Английский
Субтитры: Английские (Full, SDH, SDH-Colored)
Навигация по главам: Есть

MediaInfo:

Общее
Уникальный идентификатор : 230790911371583929895581624371264526296 (0xADA0B6742E9250CDA169B8AF722A97D8)
Полное имя : The Maze Runner. (2014) BDRip 1080p.mkv
Формат : Matroska
Версия формата : Version 2
Размер файла : 8,02 Гбайт
Продолжительность : 1 ч. 53 м.
Общий поток : 10,1 Мбит/сек
Название фильма : The Maze Runner. 2014
Дата кодирования : UTC 2014-12-01 21:23:51
Программа кодирования : mkvmerge v5.8.0 ('No Sleep / Pillow') built on Sep 2 2012 15:37:04
Библиотека кодирования : libebml v1.2.3 + libmatroska v1.3.0
Видео
Идентификатор : 1
Формат : AVC
Формат/Информация : Advanced Video Codec
Профиль формата : High@L4.1
Параметр CABAC формата : Да
Параметр ReFrames формата : 5 кадров
Идентификатор кодека : V_MPEG4/ISO/AVC
Продолжительность : 1 ч. 53 м.
Битрейт : 9097 Кбит/сек
Ширина : 1920 пикселей
Высота : 800 пикселей
Соотношение сторон : 2,40:1
Режим частоты кадров : Постоянный
Частота кадров : 23,976 кадра/сек
Цветовое пространство : YUV
Субдискретизация насыщенности : 4:2:0
Битовая глубина : 8 бит
Тип развёртки : Прогрессивная
Бит/(Пиксели*Кадры) : 0.247
Размер потока : 7,05 Гбайт (88%)
Заголовок : CHD
Библиотека кодирования : x264 core 142 r2431 ac76440
Настройки программы : cabac=1 / ref=5 / deblock=1:-3:-3 / analyse=0x3:0x113 / me=umh / subme=10 / psy=1 / psy_rd=1.00:0.05 / mixed_ref=1 / me_range=32 / chroma_me=1 / trellis=2 / 8x8dct=1 / cqm=0 / deadzone=21,11 / fast_pskip=0 / chroma_qp_offset=-2 / threads=18 / lookahead_threads=1 / sliced_threads=0 / nr=0 / decimate=1 / interlaced=0 / bluray_compat=0 / constrained_intra=0 / bframes=6 / b_pyramid=2 / b_adapt=2 / b_bias=0 / direct=3 / weightb=1 / open_gop=0 / weightp=2 / keyint=250 / keyint_min=23 / scenecut=40 / intra_refresh=0 / rc=2pass / mbtree=0 / bitrate=9097 / ratetol=1.0 / qcomp=0.70 / qpmin=0 / qpmax=69 / qpstep=4 / cplxblur=20.0 / qblur=0.5 / ip_ratio=1.40 / pb_ratio=1.30 / aq=2:1.00
Язык : English
Default : Да
Forced : Нет
Аудио #1
Идентификатор : 2
Формат : AC-3
Формат/Информация : Audio Coding 3
Расширение режима : CM (complete main)
Параметр Endianness формата : Big
Идентификатор кодека : A_AC3
Продолжительность : 1 ч. 53 м.
Вид битрейта : Постоянный
Битрейт : 384 Кбит/сек
Каналы : 6 каналов
Расположение каналов : Front: L C R, Side: L R, LFE
Частота : 48,0 КГц
Битовая глубина : 16 бит
Метод сжатия : С потерями
Размер потока : 312 Мбайт (4%)
Заголовок : D | iTunes
Язык : Russian
Default : Да
Forced : Нет
Аудио #2
Идентификатор : 3
Формат : AC-3
Формат/Информация : Audio Coding 3
Расширение режима : CM (complete main)
Параметр Endianness формата : Big
Идентификатор кодека : A_AC3
Продолжительность : 1 ч. 53 м.
Вид битрейта : Постоянный
Битрейт : 640 Кбит/сек
Каналы : 6 каналов
Расположение каналов : Front: L C R, Side: L R, LFE
Частота : 48,0 КГц
Битовая глубина : 16 бит
Метод сжатия : С потерями
Размер потока : 519 Мбайт (6%)
Заголовок : Original
Язык : English
Default : Нет
Forced : Нет
Текст #1
Идентификатор : 4
Формат : UTF-8
Идентификатор кодека : S_TEXT/UTF8
Идентификатор кодека/Информация : UTF-8 Plain Text
Заголовок : Full
Язык : English
Default : Нет
Forced : Нет
Текст #2
Идентификатор : 5
Формат : UTF-8
Идентификатор кодека : S_TEXT/UTF8
Идентификатор кодека/Информация : UTF-8 Plain Text
Заголовок : SDH
Язык : English
Default : Нет
Forced : Нет
Текст #3
Идентификатор : 6
Формат : UTF-8
Идентификатор кодека : S_TEXT/UTF8
Идентификатор кодека/Информация : UTF-8 Plain Text
Заголовок : SDH-Colored
Язык : English
Default : Нет
Forced : Нет
Меню
00:00:00.000 : en:00:00:00.000
00:03:12.651 : en:00:03:12.651
00:07:15.977 : en:00:07:15.977
00:10:25.250 : en:00:10:25.250
00:14:15.563 : en:00:14:15.563
00:17:21.249 : en:00:17:21.249
00:19:33.339 : en:00:19:33.339
00:23:21.025 : en:00:23:21.025
00:24:36.392 : en:00:24:36.392
00:28:13.108 : en:00:28:13.108
00:31:26.009 : en:00:31:26.009
00:34:12.050 : en:00:34:12.050
00:37:11.813 : en:00:37:11.813
00:41:00.875 : en:00:41:00.875
00:42:16.617 : en:00:42:16.617
00:45:47.453 : en:00:45:47.453
00:48:31.826 : en:00:48:31.826
00:52:57.800 : en:00:52:57.800
00:55:21.777 : en:00:55:21.777
00:57:58.809 : en:00:57:58.809
00:59:31.151 : en:00:59:31.151
01:01:35.275 : en:01:01:35.275
01:05:13.910 : en:01:05:13.910
01:08:42.410 : en:01:08:42.410
01:12:14.247 : en:01:12:14.247
01:14:22.833 : en:01:14:22.833
01:20:27.823 : en:01:20:27.823
01:22:25.649 : en:01:22:25.649
01:25:38.175 : en:01:25:38.175
01:29:41.585 : en:01:29:41.585
01:33:49.457 : en:01:33:49.457
01:36:43.256 : en:01:36:43.256
01:39:33.426 : en:01:39:33.426
01:43:05.596 : en:01:43:05.596
01:45:08.219 : en:01:45:08.219
01:46:12.658 : en:01:46:12.658

Скриншоты

Релиз от:
[Профиль] [ЛС]
Кто просматривает тему:

Форум Тема Автор Размер
Фильмы (HD Rips | 720p, 1080p) Бегущий в лабиринте / The Maze Runner (2014) BDRip [1080p] sergej644 11.85 GB
Фильмы (HD Rips | 720p, 1080p) Бегущий в лабиринте / The Maze Runner (2014) BDRip-AVC от R.G. HD-Films | 60 fps | Лицензия sergej644 3.82 GB
Фильмы 2014 года Бегущий в лабиринте / The Maze Runner (Уэс Болл / Wes Ball) [2014, США, Великобритания, Канада, фантастика, триллер, приключения, BDRip-AVC] Dub (Rus) + Dub (Urk) + Original (Eng) + Subs TorrentFilm 2.61 GB
Фильмы 2014 года Бегущий в лабиринте / The Maze Runner (Уэс Болл / Wes Ball) [2014, США, Великобритания, Канада, фантастика, триллер, приключения, BDRip-AVC] Dub + Dub Ukr + Sub Rus, Ukr, Eng + Original Eng TorrentFilm 2.27 GB
Фильмы 2014 года Бегущий в лабиринте / The Maze Runner (Уэс Болл / Wes Ball) [2014, США, Великобритания, Канада, Фантастика, триллер, приключения, BDRip-AVC] Dub + Sub Rus,Eng + Original Eng TorrentFilm 2.74 GB
Фильмы 2014 года Бегущий в лабиринте / The Maze Runner (Уэс Болл / Wes Ball) [2014, США, Великобритания, Канада, Фантастика, триллер, приключения, BDRip] Dub TorrentFilm 1.46 GB
Зарубежные Бегущий в лабиринте / The Maze Runner (Уэс Болл / Wes Ball) [2014, США, Великобритания, Канада, Фантастика, триллер, приключения, Blu-ray disc 1080p] CEE [EUR] TorrentFilm 43.25 GB
Фильмы 2014 года Бегущий в лабиринте / The Maze Runner (Уэс Болл / Wes Ball) [2014, США, Великобритания, Канада, Фантастика, триллер, приключения, HDRip] Dub TorrentFilm 745 MB
Показать сообщения:    

Текущее время: Сегодня 10:33

Часовой пояс: GMT



Вы не можете начинать темы
Вы не можете отвечать на сообщения
Вы не можете редактировать свои сообщения
Вы не можете удалять свои сообщения
Вы не можете голосовать в опросах
Вы не можете прикреплять файлы к сообщениям
Вы не можете скачивать файлы