Беги без оглядки / Running Scared (Уэйн Крамер / Wayne Kramer) [2006, США, Боевик, триллер, драма, криминал, BDRip] Dub

 
Автор Сообщение

painkiller ®

Стаж: 2 года 3 месяца

Сообщений: 582



Награды: Нет

Торрент-статистика

Создавать темы 14-Авг-2014 09:11

[Цитировать]

Беги без оглядки / Running Scared
«Каждая пуля оставляет след»
- Год выпуска: 2006
Выпущено: Германия, США / New Line Cinema
Жанр: боевик, триллер, драма, криминал
Продолжительность: 02:01:35
Перевод: Профессиональный (полное дублирование)
Cубтитры: нет-Режиссер:
Уэйн Крамер / Wayne Kramer-В ролях:
Пол Уокер (Joey Gazelle), Вера Фармига (Teresa Gazelle), Камерон Брайт (Oleg Yugorsky), Алекс Нойбергер (Nicky Gazelle), Чазз Пальминтери (Detective Rydell), Карел Роден (Anzor Yugorsky), Джон Ноубл (Ivan Yugorsky), Ивана Миличевич (Mila Yugorsky), Джонни Месснер (Tommy «Tombs» Perello)-Описание:
После того как была сорвана сделка наркоторговцев, в результате чего погибли несколько продажных полицейских, мелкому гангстеру Джоуи нужно было избавиться от оружия, оставшегося на месте перестрелки.
Ситуация еще более осложнилась, когда сын его соседа завладел одним из пистолетов и выстрелил из него в своего отца. В итоге Джоуи вынужден был всю ночь разыскивать этого парнишку, чтобы вернуть пропажу. При этом ему пришлось скрываться от других гангстеров, а также от полиции…-IMDB | КиноПоиск | Сэмпл |-Качество: BDRip [BDRemux]
Формат: AVI
Видео: 720x304 (2.37:1), 23.976 fps, XviD build 73 ~1323 kbps avg, 0.25 bit/pixel
Аудио: 48 kHz, AC3 Dolby Digital, 3/2 (L,C,R,l,r) + LFE ch, ~384.00 kbps avg
-

Скриншоты

MediaInfo

General
Complete name                            : D:\Begi_bez_oglyadki_2006_BDRip_by_Dalemake.avi
Format                                   : AVI
Format/Info                              : Audio Video Interleave
File size                                : 1.46 GiB
Duration                                 : 2h 1mn
Overall bit rate                         : 1 717 Kbps
Writing application                      : VirtualDubMod 1.5.10.3 | www.virtualdub-fr.org || (build 2550/release)
Writing library                          : VirtualDubMod build 2550/release
Video
ID                                       : 0
Format                                   : MPEG-4 Visual
Format profile                           : Advanced Simple@L5
Format settings, BVOP                    : 1
Format settings, QPel                    : No
Format settings, GMC                     : No warppoints
Format settings, Matrix                  : Custom
Codec ID                                 : XVID
Codec ID/Hint                            : XviD
Duration                                 : 2h 1mn
Bit rate                                 : 1 324 Kbps
Width                                    : 720 pixels
Height                                   : 304 pixels
Display aspect ratio                     : 2.35:1
Frame rate                               : 23.976 fps
Color space                              : YUV
Chroma subsampling                       : 4:2:0
Bit depth                                : 8 bits
Scan type                                : Progressive
Compression mode                         : Lossy
Bits/(Pixel*Frame)                       : 0.252
Stream size                              : 1.12 GiB (77%)
Writing library                          : XviD 73
Audio
ID                                       : 1
Format                                   : AC-3
Format/Info                              : Audio Coding 3
Mode extension                           : CM (complete main)
Format settings, Endianness              : Big
Codec ID                                 : 2000
Duration                                 : 2h 1mn
Bit rate mode                            : Constant
Bit rate                                 : 384 Kbps
Channel(s)                               : 6 channels
Channel positions                        : Front: L C R, Side: L R, LFE
Sampling rate                            : 48.0 KHz
Bit depth                                : 16 bits
Compression mode                         : Lossy
Stream size                              : 334 MiB (22%)
Alignment                                : Split accross interleaves
Interleave, duration                     : 42 ms (1.00 video frame)
Interleave, preload duration             : 500 ms
-
[Профиль] [ЛС]

Создавать темы 06-Авг-2015 23:15 (спустя 11 месяцев 23 дня)

Топик был перенесен из форума Фильмы до 2014 года в форум Фильмы до 2012 года
sergej644
 
Кто просматривает тему:

Показать сообщения:    

Текущее время: Сегодня 00:37

Часовой пояс: GMT



Вы не можете начинать темы
Вы не можете отвечать на сообщения
Вы не можете редактировать свои сообщения
Вы не можете удалять свои сообщения
Вы не можете голосовать в опросах
Вы не можете прикреплять файлы к сообщениям
Вы не можете скачивать файлы