Бегемот против крокодила / Wild-Hippo vs Croc (Кира Иванофф / Kira Ivanoff) [2013, Документальный, HDTVRip 720p]

 
Автор Сообщение

TorrentFilm ®

Пол:

Стаж: 2 года

Сообщений: 7741



Награды: Нет

Торрент-статистика

Создавать темы 20-Июн-2015 00:05

[Цитировать]

Бегемот против крокодила
Wild-Hippo vs Croc

Год выпуска: 2013
Страна: США, Earth Touch for National Geographic Channels
Жанр: Документальный
Продолжительность: 00:43:57
Перевод: Профессиональный (дублированный)
Доп. инфо о переводе: Студия "Велес" (Олег Белов)
Режиссер: Кира Иванофф / Kira Ivanoff
Описание: Бегемот, как ни странно, несмотря на свой неповоротливый вид - одно из самых опасных и смертоносных животных Африки. И второй ошибкой крокодила было мнение, что бегемоты - трусливые травоядные. Когда в опасности любимое потомство - любое животное становится бесстрашным.
Сэмпл: http://multi-up.com/1053838
Тип релиза: HDTVRip 720p
Контейнер: MKV
Видео: H.264, 1280x720 (16:9), 4600 Kbps, 25 fps, 0,200 bit/pixel
Аудио (RUS): AC3, 192 Кбит/с, 48 kHz, 2 ch
Аудио (ENG): AC3, 192 Кбит/с, 48 kHz, 2 ch

MediaInfo

GeneralUnique ID : 200034751925544769852958883478149675492 (0x967D4AB7ACA10E0EA99CD3CA678A39E4)Complete name : D:\Видео\Для обработки\Hippo vs Croc HDTVRip.2013.mkvFormat : MatroskaFormat version : Version 4 / Version 2File size : 1.53 GiBDuration : 43mn 56sOverall bit rate : 4 987 KbpsEncoded date : UTC 2015-06-15 12:37:47Writing application : mkvmerge v7.8.0 ('River Man') 64bit built on Mar 27 2015 16:31:37Writing library : libebml v1.3.1 + libmatroska v1.4.2DURATION : 00:43:54.816000000NUMBER_OF_FRAMES : 82338NUMBER_OF_BYTES : 63235584_STATISTICS_WRITING_APP : mkvmerge v7.8.0 ('River Man') 64bit built on Mar 27 2015 16:31:37_STATISTICS_WRITING_DATE_UTC : 2015-06-15 12:37:47_STATISTICS_TAGS : BPS DURATION NUMBER_OF_FRAMES NUMBER_OF_BYTES
VideoID : 1Format : AVCFormat/Info : Advanced Video CodecFormat profile : High@L4.1Format settings, CABAC : YesFormat settings, ReFrames : 7 framesCodec ID : V_MPEG4/ISO/AVCDuration : 43mn 56sBit rate : 4 600 KbpsWidth : 1 280 pixelsHeight : 720 pixelsDisplay aspect ratio : 16:9Frame rate mode : ConstantFrame rate : 25.000 fpsColor space : YUVChroma subsampling : 4:2:0Bit depth : 8 bitsScan type : ProgressiveBits/(Pixel*Frame) : 0.200Stream size : 1.38 GiB (90%)Writing library : x264 core 146 r2538 121396cEncoding settings : cabac=1 / ref=7 / deblock=1:0:0 / analyse=0x3:0x113 / me=umh / subme=9 / psy=1 / psy_rd=1.00:0.15 / mixed_ref=1 / me_range=32 / chroma_me=1 / trellis=2 / 8x8dct=1 / cqm=0 / deadzone=21,11 / fast_pskip=1 / chroma_qp_offset=-3 / threads=6 / lookahead_threads=1 / sliced_threads=0 / nr=0 / decimate=1 / interlaced=0 / bluray_compat=0 / constrained_intra=0 / bframes=8 / b_pyramid=2 / b_adapt=2 / b_bias=0 / direct=3 / weightb=1 / open_gop=0 / weightp=2 / keyint=250 / keyint_min=25 / scenecut=40 / intra_refresh=0 / rc_lookahead=60 / rc=2pass / mbtree=1 / bitrate=4600 / ratetol=1.0 / qcomp=0.60 / qpmin=0 / qpmax=69 / qpstep=4 / cplxblur=20.0 / qblur=0.5 / vbv_maxrate=14000 / vbv_bufsize=14000 / nal_hrd=none / filler=0 / ip_ratio=1.40 / aq=1:1.00Default : YesForced : No
Audio #1ID : 2Format : AC-3Format/Info : Audio Coding 3Mode extension : CM (complete main)Format settings, Endianness : BigCodec ID : A_AC3Duration : 43mn 56sBit rate mode : ConstantBit rate : 192 KbpsChannel(s) : 2 channelsChannel positions : Front: L RSampling rate : 48.0 KHzBit depth : 16 bitsCompression mode : LossyStream size : 60.3 MiB (4%)Language : RussianDefault : YesForced : No
Audio #2ID : 3Format : AC-3Format/Info : Audio Coding 3Mode extension : CM (complete main)Format settings, Endianness : BigCodec ID : A_AC3Duration : 43mn 56sBit rate mode : ConstantBit rate : 192 KbpsChannel(s) : 2 channelsChannel positions : Front: L RSampling rate : 48.0 KHzBit depth : 16 bitsCompression mode : LossyStream size : 60.3 MiB (4%)Language : EnglishDefault : NoForced : No

Скриншоты

[Профиль] [ЛС]
Показать сообщения:    

Текущее время: Сегодня 14:29

Часовой пояс: GMT



Вы не можете начинать темы
Вы не можете отвечать на сообщения
Вы не можете редактировать свои сообщения
Вы не можете удалять свои сообщения
Вы не можете голосовать в опросах
Вы не можете прикреплять файлы к сообщениям
Вы не можете скачивать файлы