Бегемот и компот (Алексей Минченок) [2015, Россия, Рисованный мультфильм, WEBRip]

 
Автор Сообщение

TorrentFilm ®

Пол:

Стаж: 2 года

Сообщений: 7741



Награды: Нет

Торрент-статистика

Создавать темы 28-Янв-2016 00:08

[Цитировать]

Бегемот и компот
Страна: Россия
Жанр: Рисованный мультфильм
Продолжительность: 00:02:36
Год выпуска: 2015
Русские субтитры: нет
Режиссёр: Алексей Минченок
Песню поёт: Александр Пожаров
Описание: Детективный мюзикл на стихи Натальи Волковой о пропаже любимого компотика у бегемотика...
Доп. информация: «Союзмультфильм»
Раздача группы:
Качество: WEBRip
Формат: AVI
Видео: 720x400 (1.80:1), 25 fps, XviD build 50 ~772 kbps avg, 0.11 bit/pixel
Аудио: 44.100 kHz, MPEG Layer 3, 2 ch, ~192.00 kbps avg
Субтитры: нет

Подробные технические данные

Format : AVIFormat/Info : Audio Video InterleaveFile size : 18.2 MiBDuration : 2mn 36sOverall bit rate : 977 KbpsWriting application : MEncoder SVN-r30881(20100311-gcc4.3.3)Writing library : MPlayer
VideoID : 0Format : MPEG-4 VisualFormat profile : Advanced Simple@L5Format settings, BVOP : 2Format settings, QPel : NoFormat settings, GMC : No warppointsFormat settings, Matrix : Default (H.263)Codec ID : XVIDCodec ID/Hint : XviDDuration : 2mn 36sBit rate : 772 KbpsWidth : 720 pixelsHeight : 400 pixelsDisplay aspect ratio : 16:9Original display aspect ratio : 16:9Frame rate : 25.000 fpsColor space : YUVChroma subsampling : 4:2:0Bit depth : 8 bitsScan type : ProgressiveCompression mode : LossyBits/(Pixel*Frame) : 0.107Stream size : 14.4 MiB (79%)Writing library : XviD 1.2.1 (UTC 2008-12-04)
AudioID : 1Format : MPEG AudioFormat version : Version 1Format profile : Layer 3Mode : Joint stereoMode extension : MS StereoCodec ID : 55Codec ID/Hint : MP3Duration : 2mn 36sBit rate mode : ConstantBit rate : 192 KbpsChannel(s) : 2 channelsSampling rate : 44.1 KHzCompression mode : LossyDelay relative to video : 40msStream size : 3.58 MiB (20%)Alignment : Aligned on interleavesInterleave, duration : 26 ms (0.65 video frame)Interleave, preload duration : 522 msWriting library : LAME3.98

Скриншоты

[Профиль] [ЛС]
Показать сообщения:    

Текущее время: Сегодня 02:31

Часовой пояс: GMT



Вы не можете начинать темы
Вы не можете отвечать на сообщения
Вы не можете редактировать свои сообщения
Вы не можете удалять свои сообщения
Вы не можете голосовать в опросах
Вы не можете прикреплять файлы к сообщениям
Вы не можете скачивать файлы