Беар Гриллс: по стопам выживших / Bear Grylls: Escape from hell / 1 сезон [2013, Документальный, приключения, IPTVRip-AVC]

 
Автор Сообщение

reversefile ®

Пол:

Стаж: 4 года 5 месяцев

Сообщений: 842

Откуда: ReverseFile.org



Награды: Нет

Торрент-статистика

Создавать темы 24-Июл-2014 17:55

[Цитировать]

Беар Гриллс: по стопам выживших / 1 сезон-Bear Grylls: Escape from hell / 1 season
Год выпуска: 2013
Страна: Великобритания
Продолжительность: 43 мин.
Перевод: Студийный (одноголосый закадровый)
Описание: Всемирно известный искатель приключений и специалист по выживанию рассказывает реальные истории выживания обычных людей, оказавшихся в экстремальной ситуации.
Качество: IPTVRip
Формат: MP4
Видео: MPEG-4 2735 Кбит/сек 720х576 (4:3) 25,000 кадров/сек
Аудио: AAC 126 Кбит/сек 2 канала 44,1 КГц
Для лучшего просмотра стоит ставить кадрирование (соотношение сторон) либо 16:9 либо 16:10
Сэмпл: http://multi-up.com/909380-Реклама вырезана
-

1 серия \ 30.09.2013 \ 1 сезон \ Discovery Channel Russia (Первая)MediaInfo

Общее
Полное имя : D:\Беар Гриллс - по стопам выживших\1 серия (Эфир от 30.09.2013).mp4
Формат : MPEG-4
Профиль формата : Base Media / Version 2
Идентификатор кодека : mp42
Размер файла : 900 Мбайт
Продолжительность : 43 м.
Режим общего битрейта : Переменный
Общий поток : 2863 Кбит/сек
Дата кодирования : UTC 2013-10-02 18:15:29
Дата пометки : UTC 2013-10-02 18:17:42
Программа кодирования : mp4creator 1.6.1d
Видео
Идентификатор : 1
Формат : MPEG-4 Visual
Профиль формата : Simple@L1
Параметр BVOP формата : Нет
Параметр QPel формата : Нет
Параметр GMC формата : Без точки перехода
Параметр матрицы формата : Default (H.263)
Идентификатор кодека : 20
Продолжительность : 43 м.
Вид битрейта : Переменный
Битрейт : 2735 Кбит/сек
Максимальный битрейт : 15,0 Мбит/сек
Ширина : 720 пикселей
Высота : 576 пикселей
Соотношение сторон : 4:3
Режим частоты кадров : Постоянный
Частота кадров : 25,000 кадров/сек
Стандарт вещания : PAL
Цветовое пространство : YUV
Субдискретизация насыщенности : 4:2:0
Битовая глубина : 8 бит
Тип развёртки : Прогрессивная
Метод сжатия : С потерями
Бит/(Пиксели*Кадры) : 0.264
Размер потока : 860 Мбайт (96%)
Язык : English
Дата кодирования : UTC 2013-10-02 18:15:29
Дата пометки : UTC 2013-10-02 18:17:34
Аудио
Идентификатор : 2
Формат : AAC
Формат/Информация : Advanced Audio Codec
Профиль формата : LC
Идентификатор кодека : 40
Продолжительность : 43 м.
Продолжительность оригинала : 43 м.
Вид битрейта : Переменный
Битрейт : 126 Кбит/сек
Максимальный битрейт : 175 Кбит/сек
Каналы : 2 канала
Расположение каналов : Front: L R
Частота : 44,1 КГц
Метод сжатия : С потерями
Размер потока : 39,5 Мбайт (4%)
Размер потока оригинала : 39,5 Мбайт (4%)
Язык : English
Дата кодирования : UTC 2013-10-02 18:17:40
Дата пометки : UTC 2013-10-02 18:17:42

Скриншоты

2 серия \ 07.10.2013 \ 1 сезон \ Discovery Channel RussiaMediaInfo

Общее
Полное имя : D:\Беар Гриллс - по стопам выживших\2 серия (Эфир от 07.10.2013).mp4
Формат : MPEG-4
Профиль формата : Base Media / Version 2
Идентификатор кодека : mp42
Размер файла : 650 Мбайт
Продолжительность : 44 м.
Режим общего битрейта : Переменный
Общий поток : 2064 Кбит/сек
Дата кодирования : UTC 2013-10-07 18:44:04
Дата пометки : UTC 2013-10-07 18:44:04
Программа кодирования : FormatFactory : www.pcfreetime.com
Видео
Идентификатор : 201
Формат : MPEG-4 Visual
Профиль формата : Simple@L1
Параметр BVOP формата : Нет
Параметр QPel формата : Нет
Параметр GMC формата : Без точки перехода
Параметр матрицы формата : Default (H.263)
Идентификатор кодека : 20
Продолжительность : 44 м.
Вид битрейта : Переменный
Битрейт : 1936 Кбит/сек
Максимальный битрейт : 9358 Кбит/сек
Ширина : 768 пикселей
Высота : 576 пикселей
Соотношение сторон : 4:3
Режим частоты кадров : Постоянный
Частота кадров : 25,000 кадров/сек
Цветовое пространство : YUV
Субдискретизация насыщенности : 4:2:0
Битовая глубина : 8 бит
Тип развёртки : Прогрессивная
Метод сжатия : С потерями
Бит/(Пиксели*Кадры) : 0.175
Размер потока : 610 Мбайт (94%)
Библиотека кодирования : Lavc53.8.0
Дата кодирования : UTC 2013-10-07 18:44:04
Дата пометки : UTC 2013-10-07 18:52:09
Аудио
Идентификатор : 101
Формат : AAC
Формат/Информация : Advanced Audio Codec
Профиль формата : LC
Идентификатор кодека : 40
Продолжительность : 44 м.
Вид битрейта : Переменный
Битрейт : 126 Кбит/сек
Максимальный битрейт : 167 Кбит/сек
Каналы : 2 канала
Расположение каналов : Front: L R
Частота : 44,1 КГц
Метод сжатия : С потерями
Размер потока : 39,5 Мбайт (6%)
Дата кодирования : UTC 2013-10-07 18:50:43
Дата пометки : UTC 2013-10-07 18:52:09

Скриншоты

3 серия \ 14.10.2013 \ 1 сезон \ Discovery Channel RussiaMediaInfo

Общее
Полное имя : D:\Беар Гриллс - по стопам выживших\3 серия (Эфир от 14.10.2013).mp4
Формат : MPEG-4
Профиль формата : Base Media / Version 2
Идентификатор кодека : mp42
Размер файла : 774 Мбайт
Продолжительность : 44 м.
Режим общего битрейта : Переменный
Общий поток : 2460 Кбит/сек
Дата кодирования : UTC 2013-10-14 19:07:49
Дата пометки : UTC 2013-10-14 19:07:49
Программа кодирования : FormatFactory : www.pcfreetime.com
Видео
Идентификатор : 201
Формат : MPEG-4 Visual
Профиль формата : Simple@L1
Параметр BVOP формата : Нет
Параметр QPel формата : Нет
Параметр GMC формата : Без точки перехода
Параметр матрицы формата : Default (H.263)
Идентификатор кодека : 20
Продолжительность : 44 м.
Вид битрейта : Переменный
Битрейт : 2332 Кбит/сек
Максимальный битрейт : 12,5 Мбит/сек
Ширина : 768 пикселей
Высота : 576 пикселей
Соотношение сторон : 4:3
Режим частоты кадров : Постоянный
Частота кадров : 25,000 кадров/сек
Цветовое пространство : YUV
Субдискретизация насыщенности : 4:2:0
Битовая глубина : 8 бит
Тип развёртки : Прогрессивная
Метод сжатия : С потерями
Бит/(Пиксели*Кадры) : 0.211
Размер потока : 734 Мбайт (95%)
Библиотека кодирования : Lavc53.8.0
Дата кодирования : UTC 2013-10-14 19:07:49
Дата пометки : UTC 2013-10-14 19:08:28
Аудио
Идентификатор : 101
Формат : AAC
Формат/Информация : Advanced Audio Codec
Профиль формата : LC
Идентификатор кодека : 40
Продолжительность : 44 м.
Вид битрейта : Переменный
Битрейт : 126 Кбит/сек
Максимальный битрейт : 165 Кбит/сек
Каналы : 2 канала
Расположение каналов : Front: L R
Частота : 44,1 КГц
Метод сжатия : С потерями
Размер потока : 39,5 Мбайт (5%)
Дата кодирования : UTC 2013-10-14 19:08:21
Дата пометки : UTC 2013-10-14 19:08:28

Скриншоты

4 серия \ 21.10.2013 \ 1 сезон \ Discovery Channel RussiaMediaInfo

Общее
Полное имя : D:\Беар Гриллс - по стопам выживших\4 серия (Эфир от 21.10.2013).mp4
Формат : MPEG-4
Профиль формата : Base Media
Идентификатор кодека : isom
Размер файла : 218 Мбайт
Продолжительность : 43 м.
Общий поток : 692 Кбит/сек
Программа кодирования : Lavf54.59.106
Видео
Идентификатор : 1
Формат : AVC
Формат/Информация : Advanced Video Codec
Профиль формата : High@L3.0
Параметр CABAC формата : Да
Параметр ReFrames формата : 4 кадра
Идентификатор кодека : avc1
Идентификатор кодека/Информация : Advanced Video Coding
Продолжительность : 43 м.
Битрейт : 560 Кбит/сек
Ширина : 600 пикселей
Высота : 480 пикселей
Соотношение сторон : 16:9
Режим частоты кадров : Постоянный
Частота кадров : 25,000 кадров/сек
Цветовое пространство : YUV
Субдискретизация насыщенности : 4:2:0
Битовая глубина : 8 бит
Тип развёртки : Прогрессивная
Бит/(Пиксели*Кадры) : 0.078
Размер потока : 176 Мбайт (81%)
Библиотека кодирования : x264 core 129
Настройки программы : cabac=1 / ref=3 / deblock=1:0:0 / analyse=0x3:0x113 / me=hex / subme=7 / psy=1 / psy_rd=1.00:0.00 / mixed_ref=1 / me_range=16 / chroma_me=1 / trellis=1 / 8x8dct=1 / cqm=0 / deadzone=21,11 / fast_pskip=1 / chroma_qp_offset=-2 / threads=24 / lookahead_threads=4 / sliced_threads=0 / nr=0 / decimate=1 / interlaced=0 / bluray_compat=0 / constrained_intra=0 / bframes=3 / b_pyramid=2 / b_adapt=1 / b_bias=0 / direct=1 / weightb=1 / open_gop=0 / weightp=2 / keyint=250 / keyint_min=25 / scenecut=40 / intra_refresh=0 / rc_lookahead=40 / rc=abr / mbtree=1 / bitrate=560 / ratetol=1.0 / qcomp=0.60 / qpmin=0 / qpmax=69 / qpstep=4 / ip_ratio=1.40 / aq=1:1.00
Аудио
Идентификатор : 2
Формат : AAC
Формат/Информация : Advanced Audio Codec
Профиль формата : LC
Идентификатор кодека : 40
Продолжительность : 43 м.
Duration_LastFrame : -20 мс.
Вид битрейта : Постоянный
Битрейт : 128 Кбит/сек
Каналы : 2 канала
Расположение каналов : Front: L R
Частота : 44,1 КГц
Метод сжатия : С потерями
Задержка видео : 80 мс.
Размер потока : 40,3 Мбайт (18%)

Скриншоты

5 серия \ 28.10.2013 \ 1 сезон \ Discovery Channel RussiaMediaInfo

Общее
Полное имя : D:\Беар Гриллс - по стопам выживших\5 серия (Эфир от 28.10.2013).mp4
Формат : MPEG-4
Профиль формата : Base Media
Идентификатор кодека : isom
Размер файла : 217 Мбайт
Продолжительность : 43 м.
Общий поток : 690 Кбит/сек
Программа кодирования : Lavf54.59.106
Видео
Идентификатор : 1
Формат : AVC
Формат/Информация : Advanced Video Codec
Профиль формата : High@L3.0
Параметр CABAC формата : Да
Параметр ReFrames формата : 4 кадра
Идентификатор кодека : avc1
Идентификатор кодека/Информация : Advanced Video Coding
Продолжительность : 43 м.
Битрейт : 560 Кбит/сек
Ширина : 600 пикселей
Высота : 480 пикселей
Соотношение сторон : 16:9
Режим частоты кадров : Постоянный
Частота кадров : 25,000 кадров/сек
Цветовое пространство : YUV
Субдискретизация насыщенности : 4:2:0
Битовая глубина : 8 бит
Тип развёртки : Прогрессивная
Бит/(Пиксели*Кадры) : 0.078
Размер потока : 175 Мбайт (81%)
Библиотека кодирования : x264 core 129
Настройки программы : cabac=1 / ref=3 / deblock=1:0:0 / analyse=0x3:0x113 / me=hex / subme=7 / psy=1 / psy_rd=1.00:0.00 / mixed_ref=1 / me_range=16 / chroma_me=1 / trellis=1 / 8x8dct=1 / cqm=0 / deadzone=21,11 / fast_pskip=1 / chroma_qp_offset=-2 / threads=24 / lookahead_threads=4 / sliced_threads=0 / nr=0 / decimate=1 / interlaced=0 / bluray_compat=0 / constrained_intra=0 / bframes=3 / b_pyramid=2 / b_adapt=1 / b_bias=0 / direct=1 / weightb=1 / open_gop=0 / weightp=2 / keyint=250 / keyint_min=25 / scenecut=40 / intra_refresh=0 / rc_lookahead=40 / rc=abr / mbtree=1 / bitrate=560 / ratetol=1.0 / qcomp=0.60 / qpmin=0 / qpmax=69 / qpstep=4 / ip_ratio=1.40 / aq=1:1.00
Аудио
Идентификатор : 2
Формат : AAC
Формат/Информация : Advanced Audio Codec
Профиль формата : LC
Идентификатор кодека : 40
Продолжительность : 43 м.
Duration_LastFrame : -15 мс.
Вид битрейта : Постоянный
Битрейт : 128 Кбит/сек
Каналы : 2 канала
Расположение каналов : Front: L R
Частота : 44,1 КГц
Метод сжатия : С потерями
Задержка видео : 80 мс.
Размер потока : 40,3 Мбайт (19%)

Скриншоты

6 серия \ 04.11.2013 \ 1 сезон \ Discovery Channel Russia (Последняя)MediaInfo

Общее
Полное имя : D:\Беар Гриллс - по стопам выживших\6 серия (Эфир от 04.11.2013, последняя).mp4
Формат : MPEG-4
Профиль формата : Base Media / Version 2
Идентификатор кодека : mp42
Размер файла : 922 Мбайт
Продолжительность : 43 м.
Режим общего битрейта : Переменный
Общий поток : 2930 Кбит/сек
Дата кодирования : UTC 2013-11-04 20:31:15
Дата пометки : UTC 2013-11-04 20:31:15
Программа кодирования : FormatFactory : www.pcfreetime.com
Видео
Идентификатор : 201
Формат : MPEG-4 Visual
Профиль формата : Simple@L1
Параметр BVOP формата : Нет
Параметр QPel формата : Нет
Параметр GMC формата : Без точки перехода
Параметр матрицы формата : Default (H.263)
Идентификатор кодека : 20
Продолжительность : 43 м.
Вид битрейта : Переменный
Битрейт : 2802 Кбит/сек
Максимальный битрейт : 14,2 Мбит/сек
Ширина : 768 пикселей
Высота : 576 пикселей
Соотношение сторон : 4:3
Режим частоты кадров : Постоянный
Частота кадров : 25,000 кадров/сек
Цветовое пространство : YUV
Субдискретизация насыщенности : 4:2:0
Битовая глубина : 8 бит
Тип развёртки : Прогрессивная
Метод сжатия : С потерями
Бит/(Пиксели*Кадры) : 0.253
Размер потока : 881 Мбайт (96%)
Библиотека кодирования : Lavc53.8.0
Дата кодирования : UTC 2013-11-04 20:31:15
Дата пометки : UTC 2013-11-04 20:32:24
Аудио
Идентификатор : 101
Формат : AAC
Формат/Информация : Advanced Audio Codec
Профиль формата : LC
Идентификатор кодека : 40
Продолжительность : 43 м.
Вид битрейта : Переменный
Битрейт : 126 Кбит/сек
Максимальный битрейт : 165 Кбит/сек
Каналы : 2 канала
Расположение каналов : Front: L R
Частота : 44,1 КГц
Метод сжатия : С потерями
Размер потока : 39,5 Мбайт (4%)
Дата кодирования : UTC 2013-11-04 20:32:17
Дата пометки : UTC 2013-11-04 20:32:24

Скриншоты

-В скором времени, ждите раздачу в HD качестве! (720p)-
[Профиль] [ЛС]
Кто просматривает тему:

Показать сообщения:    

Текущее время: Сегодня 02:15

Часовой пояс: GMT



Вы не можете начинать темы
Вы не можете отвечать на сообщения
Вы не можете редактировать свои сообщения
Вы не можете удалять свои сообщения
Вы не можете голосовать в опросах
Вы не можете прикреплять файлы к сообщениям
Вы не можете скачивать файлы