Беар Гриллс: по стопам выживших (Сезон 1) / Bear Grylls: Escape From Hell [2013, Документальный, HDTVRip]

 
Автор Сообщение

reversefile ®

Пол:

Стаж: 4 года 5 месяцев

Сообщений: 842

Откуда: ReverseFile.org



Награды: Нет

Торрент-статистика

Создавать темы 24-Июл-2014 17:55

[Цитировать]

-Беар Гриллс: по стопам выживших / Bear Grylls: Escape From Hell- Год выпуска: 2013
Страна: Великобритания
Жанр: Документальный
Продолжительность: ~43 мин.-Перевод: Студийный (одноголосый закадровый) [Discovery Channel]-Проигрывается на бытовых DVD плеерах: Да-Описание: Всемирно известный искатель приключений и специалист по выживанию Беар Гриллс рассказывает реальные истории выживания обычных людей, оказавшихся в экстремальной ситуации.-Качество: HDTVRip (Исходник HDTVRip 720p)
Энкод: SOFCJ
Формат: AVI
Видео: Xvid 720x400, 25 fps- ~ 1600 Kbps
Аудио: MPEG Audio Layer 3 48000Hz stereo 192kbps

Список эпизодов:

01. Джунгли / Jungle
Беар находится в одной из стран Центральной Америки. Он приехал сюда, потому что 3 группы людей смогли выжить в этих суровых условиях не смотря ни на что. Он находится в сердце Гватемальских джунглей - здесь жарко, сыро, кругом колючки. На каждом шагу человека подстерегает опасность, ни на минуту нельзя расслабится.
02. Снег / Snow
Береговой хребет, Канада. За этой красотой скрывается одно из самых враждебных человеку мест на земле. В таких условиях трое необыкновенных мужчин вели битву с природой за выживание. Один неверный шаг, и у тебя серьезные неприятности. Лучший способ выжить - не расслабляться и не терять концентрацию.
03. Пустыня / Desert
Беар находится в пекле пустыни Сахара и идет по следах трех удивительных человек обхитривших смерть. Они не понимали на сколько это опасно, и сами того не зная опускались прямо на дно ада. Они чувствовали себя беспомощными.
04. Каньоны / Canyons
В этот раз Беар пройдет через крутые скалы Северной Африки и яростные речные стремнины Европы, чтобы испытать то, через что прошли эти люди, оказавшиеся в невероятном природном ландшафте.
05. Горы / Mountains
В этот раз Беар в горах и лесах северной Италии. Он воспроизведет опыт трех молодых людей, обманувших смерть. Из крутых супер-мэнов они превратились в детей. Горы внушают благоговение и страх в ровном мире - и по праву. Их границы - непроходимый лес, где можно легко заблудится. На высоких пиках один неверный шаг может стоить жизни.
06. Основные принципы выживания
В этой серии Беар испытал на себе невероятные случаи выживания со всего мира. 16 обычных человек прошли через ад и выбрались живыми, не смотря ни на что. Беар покажет, как их опыт может помочь Вам выжить во враждебной местности. И продемонстрирует технику выживания в дикой природе, ее основные принципы.

MediaInfo

Формат : AVIФормат/Информация : Audio Video InterleaveРазмер файла : 504 МбайтПродолжительность : 43 м.Общий поток : 1617 Кбит/сек
ВидеоИдентификатор : 0Формат : MPEG-4 VisualПрофиль формата : Advanced Simple@L5Параметр BVOP формата : 2Параметр QPel формата : НетПараметр GMC формата : Без точки переходаПараметр матрицы формата : Default (MPEG)Идентификатор кодека : XVIDИдентификатор кодека/Подсказка : XviDПродолжительность : 43 м.Битрейт : 1416 Кбит/секШирина : 720 пикселейВысота : 400 пикселейСоотношение сторон : 16:9Частота кадров : 25,000 кадров/секЦветовое пространство : YUVСубдискретизация насыщенности : 4:2:0Битовая глубина : 8 битТип развёртки : ПрогрессивнаяМетод сжатия : С потерямиБит/(Пиксели*Кадры) : 0.197Размер потока : 441 Мбайт (88%)Библиотека кодирования : XviD 73
АудиоИдентификатор : 1Формат : MPEG AudioВерсия формата : Version 1Профиль формата : Layer 3Идентификатор кодека : 55Идентификатор кодека/Подсказка : MP3Продолжительность : 43 м.Вид битрейта : ПостоянныйБитрейт : 192 Кбит/секКаналы : 2 каналаЧастота : 48,0 КГцМетод сжатия : С потерямиРазмер потока : 59,8 Мбайт (12%)Выравнивание : Соединение по промежуткамПродолжительность промежутка : 40 мс. (1,00 видеокадр)Время предзагрузки промежутка : 504 мс.Библиотека кодирования : LAME3.99rНастройки программы : -m s -V 4 -q 2 -lowpass 18.6 -b 192
[Профиль] [ЛС]
Кто просматривает тему:

Показать сообщения:    

Текущее время: Сегодня 02:37

Часовой пояс: GMT



Вы не можете начинать темы
Вы не можете отвечать на сообщения
Вы не можете редактировать свои сообщения
Вы не можете удалять свои сообщения
Вы не можете голосовать в опросах
Вы не можете прикреплять файлы к сообщениям
Вы не можете скачивать файлы