Беар Гриллс: Кадры спасения / Bear Grylls: Xtrime survival caught on camera (Дэвид О\'Нейлл / David O\'neill) / 1-8 серии из (8) [2013, Документальный, экстрим, реальное ТВ, HDTV 1080p]

 
Автор Сообщение

TorrentFilm ®

Пол:

Стаж: 2 года

Сообщений: 7741



Награды: Нет

Торрент-статистика

Создавать темы 09-Июн-2015 00:04

[Цитировать]

Беар Гриллс: Кадры спасения / Bear Grylls: Xtrime survival caught on camera -Дата/Год выпуска: 2013
Страна: Великобритания
Жанр: Документальный, экстрим, реальное ТВ
Продолжительность: 8 x ~ 00:22:00
Перевод: Профессиональный (многоголосый, закадровый) -
Русские субтитры: нет-Режиссер: Дэвид О'Нейлл / David O'neill-О фильме: Беар Гриллс познакомит нас с рядом историй выживания в экстремальных условиях, с точки зрения их непосредственных участников. Узнайте, как же им удалось остаться в живых.-Релиз от: -Качество: HDTVRip 1080p [Сэмпл]
Формат: MKV
Видео: MPEG4 ASP, ~ 6861 Кбит/сек, 1920x1080, 8bit, 30,000 кадров/сек
Аудио: AC3, 2 ch, 48,0 КГц, 192 Кбит/с
Название серий">

Скриншоты Название серий


1 серия. Снег
2 серия. Дороги
3 серия. Животные
4 серия. Воздух
5 серия. Вода
6 серия. Силы природы
7 серия. Работа
8 серия. Любители острых ощущений

MediaInfo

Формат : MatroskaВерсия формата : Version 2Размер файла : 1,10 ГбайтПродолжительность : 21 м.Общий поток : 7196 Кбит/секПрограмма кодирования : Lavf52.94.0Библиотека кодирования : Lavf52.94.0
ВидеоИдентификатор : 1Формат : MPEG-4 VisualПрофиль формата : Simple@L1Параметр BVOP формата : НетПараметр QPel формата : НетПараметр GMC формата : Без точки переходаПараметр матрицы формата : Default (H.263)Идентификатор кодека : V_MPEG4/ISO/ASPИдентификатор кодека/Информация : Advanced Simple ProfileПродолжительность : 21 м.Битрейт : 6861 Кбит/секШирина : 1920 пикселейВысота : 1080 пикселейСоотношение сторон : 16:9Режим частоты кадров : ПостоянныйЧастота кадров : 30,000 кадров/секЦветовое пространство : YUVСубдискретизация насыщенности : 4:2:0Битовая глубина : 8 битТип развёртки : ПрогрессивнаяМетод сжатия : С потерямиБит/(Пиксели*Кадры) : 0.110Размер потока : 1,04 Гбайт (95%)Библиотека кодирования : Lavc52.108.0Default : ДаForced : Нет
АудиоИдентификатор : 2Формат : AC-3Формат/Информация : Audio Coding 3Расширение режима : CM (complete main)Параметр Endianness формата : BigИдентификатор кодека : A_AC3Продолжительность : 21 м.Вид битрейта : ПостоянныйБитрейт : 192 Кбит/секКаналы : 2 каналаРасположение каналов : Front: L RЧастота : 48,0 КГцБитовая глубина : 16 битМетод сжатия : С потерямиРазмер потока : 29,9 Мбайт (3%)Default : ДаForced : Нет
[Профиль] [ЛС]
Кто просматривает тему:

Показать сообщения:    

Текущее время: Сегодня 02:18

Часовой пояс: GMT



Вы не можете начинать темы
Вы не можете отвечать на сообщения
Вы не можете редактировать свои сообщения
Вы не можете удалять свои сообщения
Вы не можете голосовать в опросах
Вы не можете прикреплять файлы к сообщениям
Вы не можете скачивать файлы