Башни-близнецы / World Trade Center (Оливер Стоун / Oliver Stone) [2006, США, драма, история, BDRip-AVC] Dub + DVO + Sub (Rus, Eng)

 
Автор Сообщение

TorrentFilm ®

Пол:

Стаж: 2 года

Сообщений: 7741



Награды: Нет

Торрент-статистика

Создавать темы 03-Янв-2015 00:01

[Цитировать]

Башни-близнецы / World Trade Center- Страна: США
Жанр: драма, история
Год выпуска: 2006
Продолжительность: 02:09:08
Перевод 1: Профессиональный (дублированный)
Перевод 2: Профессиональный (двухголосый закадровый)
Cубтитры: русские, английские
Оригинальная аудиодорожка: нет-Режиссер: Оливер Стоун / Oliver Stone
В ролях: Николас Кейдж, Майкл Пена, Мэгги Джилленхал, Мария Белло, Коннор Паоло, Энтони Пиччининни, Алекса Герасимович, Морган Флинн, Армандо Риско, Джей Эрнандез, Джон Бернтал, Уильям Джимено, Ник Дамичи, Джуд Чикколелла, Нельсон Пеня, Маркос Пальма, Андре Уорд, Клифф Бемис, Нед Эйзенберг-Описание: История героической борьбы за жизнь двух полицейских из Порт Оторити — Джона МакЛофлина и Уилла Химено, которые оказались под обломками упавшей башни Всемирного торгового центра 11 сентября 2001 года, после того, как они сами были направлены к месту теракта для помощи пострадавшим…
-
-Качество видео: BDRip-AVC
Формат видео: MKV
Видео: x.264, 1152x648, 3950 Kbps, 23.976 fps, 0.221 bit/(pixel*frame)
Аудио 1: AC3, 448 Kbps, 48000 Hz, 5.1 channels - DUB
Аудио 2: AC3, 448 Kbps, 48000 Hz, 5.1 channels - DVO (П.Гланц и И.Королёва)
Формат субтитров: softsub (SRT)
-Дополнительно Английская дорожка
-

Скриншоты


Резервные скриншоты



-

MediaInfo / log

Format : Matroska
Format version : Version 4 / Version 2
File size : 4.37 GiB
Duration : 2h 9mn
Overall bit rate : 4 848 Kbps
Movie name : Башни-близнецы / World Trade Center (2006) BDRip-AVC [RG Torrents.ru]
Encoded date : UTC 2015-01-02 15:34:34
Writing application : mkvmerge v7.4.0 ('Circles') 32bit built on Dec 12 2014 12:10:09
Writing library : libebml v1.3.0 + libmatroska v1.4.1
Attachment : Yes
Video
ID : 1
Format : AVC
Format/Info : Advanced Video Codec
Format profile : High@L4.1
Format settings, CABAC : Yes
Format settings, ReFrames : 11 frames
Codec ID : V_MPEG4/ISO/AVC
Duration : 2h 9mn
Bit rate : 3 950 Kbps
Width : 1 152 pixels
Height : 648 pixels
Display aspect ratio : 16:9
Frame rate mode : Constant
Frame rate : 23.976 fps
Color space : YUV
Chroma subsampling : 4:2:0
Bit depth : 8 bits
Scan type : Progressive
Bits/(Pixel*Frame) : 0.221
Stream size : 3.48 GiB (80%)
Title : World Trade Center (2006) RG Torrents.ru
Writing library : x264 core 142 r2479 dd79a61
Encoding settings : cabac=1 / ref=11 / deblock=1:-2:-2 / analyse=0x3:0x133 / me=umh / subme=11 / psy=1 / psy_rd=1.15:0.15 / mixed_ref=1 / me_range=32 / chroma_me=1 / trellis=2 / 8x8dct=1 / cqm=0 / deadzone=21,11 / fast_pskip=0 / chroma_qp_offset=-3 / threads=6 / lookahead_threads=1 / sliced_threads=0 / nr=0 / decimate=1 / interlaced=0 / bluray_compat=0 / constrained_intra=0 / bframes=12 / b_pyramid=2 / b_adapt=2 / b_bias=0 / direct=3 / weightb=1 / open_gop=0 / weightp=2 / keyint=240 / keyint_min=23 / scenecut=40 / intra_refresh=0 / rc_lookahead=60 / rc=2pass / mbtree=0 / bitrate=3950 / ratetol=1.0 / qcomp=0.60 / qpmin=0 / qpmax=69 / qpstep=4 / cplxblur=20.0 / qblur=0.5 / vbv_maxrate=20000 / vbv_bufsize=25000 / nal_hrd=none / filler=0 / ip_ratio=1.20 / pb_ratio=1.30 / aq=1:1.00 / zones=171940,185630,b=0.3
Language : English
Default : Yes
Forced : No
Audio #1
ID : 2
Format : AC-3
Format/Info : Audio Coding 3
Mode extension : CM (complete main)
Format settings, Endianness : Big
Codec ID : A_AC3
Duration : 2h 9mn
Bit rate mode : Constant
Bit rate : 448 Kbps
Channel(s) : 6 channels
Channel positions : Front: L C R, Side: L R, LFE
Sampling rate : 48.0 KHz
Bit depth : 16 bits
Compression mode : Lossy
Stream size : 414 MiB (9%)
Title : DUB
Language : Russian
Default : Yes
Forced : No
Audio #2
ID : 3
Format : AC-3
Format/Info : Audio Coding 3
Mode extension : CM (complete main)
Format settings, Endianness : Big
Codec ID : A_AC3
Duration : 2h 9mn
Bit rate mode : Constant
Bit rate : 448 Kbps
Channel(s) : 6 channels
Channel positions : Front: L C R, Side: L R, LFE
Sampling rate : 48.0 KHz
Bit depth : 16 bits
Compression mode : Lossy
Stream size : 414 MiB (9%)
Title : DVO (Glanz, Koroleva)
Language : Russian
Default : No
Forced : No
Text #1
ID : 4
Format : UTF-8
Codec ID : S_TEXT/UTF8
Codec ID/Info : UTF-8 Plain Text
Language : Russian
Default : No
Forced : No
Text #2
ID : 5
Format : UTF-8
Codec ID : S_TEXT/UTF8
Codec ID/Info : UTF-8 Plain Text
Language : English
Default : No
Forced : No
Menu
00:00:00.000 : en:00:00:00.000
00:07:09.888 : en:00:07:09.888
00:10:47.856 : en:00:10:47.856
00:14:57.188 : en:00:14:57.188
00:19:35.174 : en:00:19:35.174
00:25:23.522 : en:00:25:23.522
00:36:42.700 : en:00:36:42.700
00:41:12.095 : en:00:41:12.095
00:45:32.313 : en:00:45:32.313
00:52:01.452 : en:00:52:01.452
00:58:04.106 : en:00:58:04.106
01:03:54.873 : en:01:03:54.873
01:07:44.811 : en:01:07:44.811
01:11:44.091 : en:01:11:44.091
01:15:54.550 : en:01:15:54.550
01:20:29.825 : en:01:20:29.825
01:25:12.482 : en:01:25:12.482
01:31:14.761 : en:01:31:14.761-
x264 [info]: frame I:1127  Avg QP:14.81  size: 81407
x264 [info]: frame P:39049 Avg QP:17.37  size: 39224
x264 [info]: frame B:145608 Avg QP:18.00  size: 15118
x264 [info]: consecutive B-frames:  2.1%  3.4% 11.9% 15.5% 12.3% 26.6%  7.4%  4.2%  4.3%  2.6%  3.1%  3.3%  3.5%
x264 [info]: mb I  I16..4: 14.5% 70.2% 15.3%
x264 [info]: mb P  I16..4:  2.6% 17.0%  1.5%  P16..4: 26.2% 31.4% 10.3%  1.4%  0.1%    skip: 9.5%
x264 [info]: mb B  I16..4:  0.7%  1.5%  0.1%  B16..8: 34.8% 20.8%  3.8%  direct: 7.7%  skip:30.6%  L0:46.1% L1:43.5% BI:10.4%
x264 [info]: 8x8 transform intra:75.3% inter:58.7%
x264 [info]: direct mvs  spatial:98.9% temporal:1.1%
x264 [info]: coded y,uvDC,uvAC intra: 75.4% 88.5% 77.1% inter: 28.8% 33.6% 13.1%
x264 [info]: i16 v,h,dc,p: 77%  8%  5% 10%
x264 [info]: i8 v,h,dc,ddl,ddr,vr,hd,vl,hu:  9%  7% 14% 10% 13% 12% 12% 11% 13%
x264 [info]: i4 v,h,dc,ddl,ddr,vr,hd,vl,hu: 13%  7% 16%  8% 12% 12% 11% 10% 11%
x264 [info]: i8c dc,h,v,p: 52% 19% 14% 15%
x264 [info]: Weighted P-Frames: Y:6.9% UV:3.1%
x264 [info]: ref P L0: 45.8%  6.9% 17.5%  8.1%  6.0%  4.6%  3.9%  2.3%  1.9%  1.6%  1.2%  0.2%  0.0%
x264 [info]: ref B L0: 64.0% 15.9%  7.5%  4.0%  2.9%  2.2%  1.7%  1.1%  0.6%  0.2%
x264 [info]: ref B L1: 91.0%  9.0%
x264 [info]: SSIM Mean Y:0.9827072 (17.621db)
x264 [info]: kb/s:3948.68
encoded 185784 frames, 2.85 fps, 3948.68 kb/s
[Профиль] [ЛС]

Создавать темы 06-Авг-2015 22:50 (спустя 7 месяцев 3 дня)

Топик был перенесен из форума Фильмы до 2014 года в форум Фильмы до 2012 года
sergej644
 
Показать сообщения:    

Текущее время: Сегодня 19:37

Часовой пояс: GMT



Вы не можете начинать темы
Вы не можете отвечать на сообщения
Вы не можете редактировать свои сообщения
Вы не можете удалять свои сообщения
Вы не можете голосовать в опросах
Вы не можете прикреплять файлы к сообщениям
Вы не можете скачивать файлы