Бахубали: Начало / Baahubali: The Beginning (2015) HDRip-AVC от ExKinoRay | L2

 
Автор Сообщение

достали все ®

Пол:

Стаж: 1 год 8 месяцев

Сообщений: 6554



Награды: 12 (Подробнее)

Mega Seeder 4 (Количество: 1) Top Releaser 4 (Количество: 1) Mega Releaser 3 (Количество: 1)
Торрент-статистика

Создавать темы 27-Дек-2015 22:35

[Цитировать]

Название: Бахубали: Начало
Оригинальное название: Baahubali: The Beginning
Год выпуска: 2015
Жанр: Боевик, приключения, военный, история
Выпущено: Индия, Arka Mediaworks, Indian Artists Computer Graphics, Makuta
Режиссер: С.С. Раджамули
В ролях: Прабхас, Рана Даггубати, Анушка Шетти, Таманна Бхатия, Рамья Кришна, Нассер, Судип, Сатьярадж, Таникелла Бхарани
О фильме: Всё начинается со спасения ребенка, которого должны были убить солдаты, посланные правителем королевства Махишмати. Спустя годы, мальчик превращается в крепкого и рослого юношу Шивуду. Однажды он находит маску и решает во что бы то ни стало разыскать ее владельца, не подозревая, что она принадлежит прекрасной воительнице, которая всем своим кланом пытается вызволить из плена королеву Девасену, заточенную жестоким тираном Бхаллалой Девой...

Качество: HDRip (AVC)
Видео: MPEG-4 AVC, 2857 Кбит/с, 1024х440, 24.000 кадр/с
Аудио: Русский (AC3, 6 ch, 448 Кбит/с), хинди (AC3, 6 ch, 384 Кбит/с)
Продолжительность: 02:39:32
Озвучивание: Любительское (двухголосое) [DeadSno & den904]
Перевод и редакция: Honey&Haseena
Субтитры: Русские (на песни)

MI

General
Unique ID : 187849628683608897493026050928078528737 (0x8D5285C20F7E67D3A686DDD51C64A0E1)
Complete name : C:Baahubali.Beginning.2015.L2.HDRip.AVC.ExKinoRay.mkv
Format : Matroska
Format version : Version 4 / Version 2
File size : 4.11 GiB
Duration : 2h 39mn
Overall bit rate : 3 686 Kbps
Movie name : Baahubali Beginning 2015 from ExKinoRay
Encoded date : UTC 2015-12-22 01:16:25
Writing application : mkvmerge v6.6.0 ('The Edge Of The In Between') built on Dec 1 2013 17:55:00
Writing library : libebml v1.3.0 + libmatroska v1.4.1
Video
ID : 1
Format : AVC
Format/Info : Advanced Video Codec
Format profile : High@L4.1
Format settings, CABAC : Yes
Format settings, ReFrames : 10 frames
Codec ID : V_MPEG4/ISO/AVC
Duration : 2h 39mn
Bit rate : 2 857 Kbps
Width : 1 024 pixels
Height : 440 pixels
Display aspect ratio : 2.35:1
Frame rate mode : Constant
Frame rate : 24.000 fps
Color space : YUV
Chroma subsampling : 4:2:0
Bit depth : 8 bits
Scan type : Progressive
Bits/(Pixel*Frame) : 0.264
Stream size : 3.10 GiB (75%)
Title : Enigma
Writing library : x264 core 133 r2334 a3ac64b
Encoding settings : cabac=1 / ref=10 / deblock=1:-2:-2 / analyse=0x3:0x113 / me=umh / subme=10 / psy=1 / psy_rd=1.05:0.15 / mixed_ref=1 / me_range=32 / chroma_me=1 / trellis=2 / 8x8dct=1 / cqm=0 / deadzone=21,11 / fast_pskip=0 / chroma_qp_offset=-3 / threads=12 / lookahead_threads=2 / sliced_threads=0 / nr=0 / decimate=0 / interlaced=0 / bluray_compat=0 / constrained_intra=0 / bframes=9 / b_pyramid=2 / b_adapt=2 / b_bias=0 / direct=3 / weightb=1 / open_gop=0 / weightp=2 / keyint=240 / keyint_min=24 / scenecut=40 / intra_refresh=0 / rc=2pass / mbtree=0 / bitrate=2857 / ratetol=1.0 / qcomp=0.60 / qpmin=0 / qpmax=51 / qpstep=4 / cplxblur=20.0 / qblur=0.5 / ip_ratio=1.40 / pb_ratio=1.30 / aq=1:1.00
Language : English
Default : Yes
Forced : No
Color primaries : BT.709
Transfer characteristics : BT.709
Matrix coefficients : BT.709
Audio #1
ID : 2
Format : AC-3
Format/Info : Audio Coding 3
Mode extension : CM (complete main)
Format settings, Endianness : Big
Codec ID : A_AC3
Duration : 2h 39mn
Bit rate mode : Constant
Bit rate : 448 Kbps
Channel(s) : 6 channels
Channel positions : Front: L C R, Side: L R, LFE
Sampling rate : 48.0 KHz
Bit depth : 16 bits
Compression mode : Lossy
Stream size : 511 MiB (12%)
Title : DeadSno & Den904
Language : Russian
Default : Yes
Forced : No
Audio #2
ID : 3
Format : AC-3
Format/Info : Audio Coding 3
Mode extension : CM (complete main)
Format settings, Endianness : Big
Codec ID : A_AC3
Duration : 2h 39mn
Bit rate mode : Constant
Bit rate : 384 Kbps
Channel(s) : 6 channels
Channel positions : Front: L C R, Side: L R, LFE
Sampling rate : 48.0 KHz
Bit depth : 16 bits
Compression mode : Lossy
Stream size : 438 MiB (10%)
Language : Hindi
Default : No
Forced : No
Text
ID : 4
Format : UTF-8
Codec ID : S_TEXT/UTF8
Codec ID/Info : UTF-8 Plain Text
Title : Songs only
Language : Russian
Default : No
Forced : No
Menu
00:00:00.000 : en:Chapter 01
00:04:45.750 : en:Chapter 02
00:10:28.041 : en:Chapter 03
00:15:24.875 : en:Chapter 04
00:18:42.166 : en:Chapter 05
00:20:40.333 : en:Chapter 06
00:26:51.125 : en:Chapter 07
00:33:06.833 : en:Chapter 08
00:41:03.583 : en:Chapter 09
01:02:02.416 : en:Chapter 10
01:05:31.250 : en:Chapter 11
01:11:45.541 : en:Chapter 12
01:21:27.625 : en:Chapter 13
01:37:14.000 : en:Chapter 14
01:44:07.208 : en:Chapter 15
01:48:28.083 : en:Chapter 16
01:51:42.208 : en:Chapter 17
01:57:32.208 : en:Chapter 18
02:19:32.666 : en:Chapter 19
02:29:12.583 : en:Chapter 20

Релиз от:
Автор релиза:
[Профиль] [ЛС]
Показать сообщения:    

Текущее время: Сегодня 16:52

Часовой пояс: GMT



Вы не можете начинать темы
Вы не можете отвечать на сообщения
Вы не можете редактировать свои сообщения
Вы не можете удалять свои сообщения
Вы не можете голосовать в опросах
Вы не можете прикреплять файлы к сообщениям
Вы не можете скачивать файлы