Батальонъ (Дмитрий Месхиев) [2015, драма, военный, история, WEB-DL 1080p]

 
Автор Сообщение

TorrentFilm ®

Пол:

Стаж: 2 года

Сообщений: 7741



Награды: Нет

Торрент-статистика

Создавать темы 15-Июл-2015 00:08

[Цитировать]

Батальонъ
Жанр: драма, военный, история
Год выпуска: 2015
Продолжительность: 02:03:45
Режиссёр: Дмитрий Месхиев
В ролях: Мария Аронова, Мария Кожевникова, Ирина Рахманова, Марат Башаров, Янина Малинчик, Евгений Дятлов, Алёна Кучкова, Валерия Шкирандо, Николай Аузин, Владимир Зайцев
Описание: Весна 1917-го года. Февральская революция изменила жизнь России и ход Великой войны. Государь уже отрёкся от престола. В окопах, где противостояние с немцами длится уже не один год, вовсю ведут свою пропаганду большевики. Они призывают к миру с неприятелем. Российское офицерство фактически ничего не может решить без одобрения так называемых солдатских комитетов. Армия находится на пороге окончательного разложения.
По приказу Временного правительства для поднятия боевого духа создаётся женский «Батальон смерти» под командованием георгиевского кавалера Марии Бочкарёвой. Своей службой «Батальон смерти» подаёт пример храбрости, мужества и спокойствия, поднимает дух солдат и доказывает, что каждая из этих женщин-героев достойна звания воина русской армии.
Сэмпл: http://multi-up.com/1057838
Качество видео: WEB-DL 1080p
Формат видео: MKV
Видео: MPEG-4 AVC, 1920x800, 23.976 fps, ~ 4365 kbps, 0.114 bit/pixel
Аудио: Русский: 48 kHz, AC3, 3/2 (L,C,R,l,r) + LFE ch, ~384.00 kbps avg

MediaInfo

Общее
Уникальный идентификатор : 222595636672542813463078816038789487120 (0xA7765C37199927C9BE9F6825A8A29A10)
Полное имя : C:\Batalion.2015.O.WEB-DL.1080p.mkv
Формат : Matroska
Версия формата : Version 4 / Version 2
Размер файла : 4,19 Гбайт
Продолжительность : 2 ч. 3 м.
Общий поток : 4846 Кбит/сек
Дата кодирования : UTC 2015-07-09 20:08:46
Программа кодирования : mkvmerge v6.5.0 ('Isn't she lovely') built on Oct 20 2013 12:50:05
Библиотека кодирования : libebml v1.3.0 + libmatroska v1.4.1
Видео
Идентификатор : 1
Формат : AVC
Формат/Информация : Advanced Video Codec
Профиль формата : High@L4.0
Параметр CABAC формата : Да
Параметр ReFrames формата : 5 кадров
Идентификатор кодека : V_MPEG4/ISO/AVC
Продолжительность : 2 ч. 3 м.
Битрейт : 4365 Кбит/сек
Ширина : 1920 пикселей
Высота : 800 пикселей
Соотношение сторон : 2,40:1
Режим частоты кадров : Постоянный
Частота кадров : 25,000 кадров/сек
Цветовое пространство : YUV
Субдискретизация насыщенности : 4:2:0
Битовая глубина : 8 бит
Тип развёртки : Прогрессивная
Бит/(Пиксели*Кадры) : 0.114
Размер потока : 3,77 Гбайт (90%)
Язык : Russian
Default : Да
Forced : Нет
Основные цвета : BT.709
Характеристики трансфера : BT.709
Коэффициенты матрицы : BT.709
colour_range : Limited
Аудио
Идентификатор : 2
Формат : AC-3
Формат/Информация : Audio Coding 3
Расширение режима : CM (complete main)
Параметр Endianness формата : Big
Идентификатор кодека : A_AC3
Продолжительность : 2 ч. 3 м.
Вид битрейта : Постоянный
Битрейт : 384 Кбит/сек
Каналы : 6 каналов
Расположение каналов : Front: L C R, Side: L R, LFE
Частота : 48,0 КГц
Битовая глубина : 16 бит
Метод сжатия : С потерями
Размер потока : 340 Мбайт (8%)
Язык : Russian
Default : Да
Forced : Нет
Меню
00:00:00.000 : en:Глава 1
00:07:52.000 : en:Глава 2
00:11:50.000 : en:Глава 3
00:17:16.000 : en:Глава 4
00:20:48.000 : en:Глава 5
00:24:37.000 : en:Глава 6
00:29:32.000 : en:Глава 7
00:36:08.000 : en:Глава 8
00:41:19.000 : en:Глава 9
00:46:39.000 : en:Глава 10
00:53:45.000 : en:Глава 11
01:02:01.000 : en:Глава 12
01:09:03.000 : en:Глава 13
01:17:57.000 : en:Глава 14
01:26:23.000 : en:Глава 15
01:34:31.000 : en:Глава 16
01:39:20.000 : en:Глава 17
01:44:13.000 : en:Глава 18
01:48:33.000 : en:Глава 19
01:52:00.000 : en:Глава 20

Скриншот c названием фильма

Скриншоты




[Профиль] [ЛС]
Показать сообщения:    

Текущее время: Сегодня 18:40

Часовой пояс: GMT



Вы не можете начинать темы
Вы не можете отвечать на сообщения
Вы не можете редактировать свои сообщения
Вы не можете удалять свои сообщения
Вы не можете голосовать в опросах
Вы не можете прикреплять файлы к сообщениям
Вы не можете скачивать файлы