Барышня-крестьянка (Алексей Сахаров) [1995, Россия, мелодрама, BDRip 720p]

 
Автор Сообщение

painkiller ®

Стаж: 2 года 3 месяца

Сообщений: 582



Награды: Нет

Торрент-статистика

Создавать темы 15-Авг-2014 10:21

[Цитировать]

Барышня-крестьянка
Страна: Россия
Жанр: мелодрама
Год выпуска: 1995
Продолжительность: 01:50:19
Cубтитры: нет
Режиссер: Алексей Сахаров
В ролях: Елена Корикова, Дмитрий Щербина, Леонид Куравлёв, Василий Лановой, Екатерина Редникова, Людмила Артемьева, Евгений Жариков, Наталья Гвоздикова, Вадим Захарченко, Елена Котихина
Описание: В соседское имение приезжает молодой барин. Лиза хочет познакомиться с красавцем, но их отцы не общаются, давно затаив обиду друг на друга. Девушка, зная о том, что молодой барин любит по утрам объезжать лес, переодевается в крестьянское платье и рано утром, прихватив лукошко, идёт в лес...
Тип релиза: BDRip 720p
Контейнер: MKV
Видео: 992x720 at 23.976 fps, x264@L4.1, crf, ~6320 kbps avg
Аудио: Russian: 48 kHz, DTS, 3/2 (L,C,R,l,r) + LFE ch, ~1536 kbps avg
Аудио 2: Russian: 48 kHz, AC3, 1/0 (C) ch, ~192 avg

Релиз:
Сэмпл

MediaInfo

E:\Torrents\Lady Farmer.mkv
General
Unique ID : 191046728689778408166800632281160769471 (0x8FBA42F556F6FD6EBB925FA466245FBF)
Complete name : E:\Torrents\Lady Farmer.mkv
Format : Matroska
File size : 6.28 GiB
Duration : 1h 50mn
Overall bit rate : 8 151 Kbps
Movie name : Lady Farmer (1995) - Release for HDCLUB
Encoded date : UTC 2012-08-06 20:27:06
Writing application : mkvmerge v3.4.0 ('Rapunzel') built on May 15 2010 09:38:20
Writing library : libebml v0.8.0 + libmatroska v0.9.0
Video #1
ID : 1
Format : AVC
Format/Info : Advanced Video Codec
Format profile : High@L4.1
Format settings, CABAC : Yes
Format settings, ReFrames : 8 frames
Codec ID : V_MPEG4/ISO/AVC
Duration : 1h 50mn
Bit rate : 6 287 Kbps
Width : 992 pixels
Height : 720 pixels
Display aspect ratio : 1.378
Frame rate : 23.976 fps
Color space : YUV
Chroma subsampling : 4:2:0
Bit depth : 8 bits
Scan type : Progressive
Bits/(Pixel*Frame) : 0.367
Stream size : 4.84 GiB (77%)
Title : Release for HDCLUB
Writing library : x264 core 125 r2200 999b753
Encoding settings : cabac=1 / ref=8 / deblock=1:-3:-3 / analyse=0x3:0x113 / me=umh / subme=10 / psy=1 / psy_rd=1.00:0.00 / mixed_ref=1 / me_range=32 / chroma_me=1 / trellis=2 / 8x8dct=1 / cqm=0 / deadzone=21,11 / fast_pskip=0 / chroma_qp_offset=-2 / threads=18 / lookahead_threads=3 / sliced_threads=0 / nr=0 / decimate=0 / interlaced=0 / bluray_compat=0 / constrained_intra=0 / bframes=8 / b_pyramid=2 / b_adapt=2 / b_bias=0 / direct=3 / weightb=1 / open_gop=0 / weightp=2 / keyint=240 / keyint_min=22 / scenecut=40 / intra_refresh=0 / rc_lookahead=60 / rc=crf / mbtree=0 / crf=18.0 / qcomp=0.60 / qpmin=10 / qpmax=51 / qpstep=4 / vbv_maxrate=50000 / vbv_bufsize=62500 / crf_max=0.0 / nal_hrd=none / ip_ratio=1.40 / pb_ratio=1.30 / aq=1:0.80
Language : English
Matrix coefficients : BT.709-5, BT.1361, IEC 61966-2-4 709, SMPTE RP177
Audio #2
ID : 2
Format : DTS
Format/Info : Digital Theater Systems
Codec ID : A_DTS
Duration : 1h 50mn
Bit rate mode : Constant
Bit rate : 1 510 Kbps
Channel(s) : 6 channels
Channel positions : Front: L C R, Side: L R, LFE
Sampling rate : 48.0 KHz
Bit depth : 24 bits
Compression mode : Lossy
Stream size : 1.16 GiB (19%)
Title : DTS 5.1 @ 1536 kbps
Language : Russian
Audio #3
ID : 3
Format : AC-3
Format/Info : Audio Coding 3
Mode extension : CM (complete main)
Codec ID : A_AC3
Duration : 1h 50mn
Bit rate mode : Constant
Bit rate : 192 Kbps
Channel(s) : 1 channel
Channel positions : Front: C
Sampling rate : 48.0 KHz
Bit depth : 16 bits
Compression mode : Lossy
Stream size : 152 MiB (2%)
Title : AC3 1.0 @ 192 kbps
Language : Russian

Скриншоты

[Профиль] [ЛС]
Показать сообщения:    

Текущее время: Сегодня 06:18

Часовой пояс: GMT



Вы не можете начинать темы
Вы не можете отвечать на сообщения
Вы не можете редактировать свои сообщения
Вы не можете удалять свои сообщения
Вы не можете голосовать в опросах
Вы не можете прикреплять файлы к сообщениям
Вы не можете скачивать файлы