(Russian Rock, Pop - Rock) Барыкин & Карнавал - Избранное (4CD BOX) - 2012 [FLAC, image +.cue, lossless]

 
Автор Сообщение

sergej644 ®

Пол:

Стаж: 4 года 11 месяцев

Сообщений: 6038

Откуда: Soviet Union



Награды: Нет

Торрент-статистика

Создавать темы 12-Янв-2016 15:45

[Цитировать]

-Барыкин & Карнавал - Избранное (4CD BOX)-- Год издания: 2012
Страна: Russia
Жанр: Russian Rock, Pop - Rock
Продолжительность: 05:15:59-Лейбл издания: ANIMA VOX
Страна-выпуска диска: Russia
Формат: FLAC
Битрейт аудио: lossless
Тип рипа: image +.cue
Наличие сканов в содержимом раздачи: да
-

треклист:

CD 1 | 01:18:43

01.Друг или враг(04:38)
02.Судьба(04:30)
03.Горько(04:45)
04.Super woman(03:53)
05.Все пройдет(04:27)
06.Сон(03:48)
07.Птицы(05:14)
08.Жил как жил(03:56)
09.Молоко(03:43)
10.Брат(05:54)
11.Осень пришла(04:36)
12.Дали(04:46)
13.Тает, тает(04:21)
14.Волга(04:45)
15.Букет (ремикс)(03:58)
16.Игрок(03:32)
17.20-00(03:40)
18.Девчонка(04:25)

CD 2 | 01:19:29

01.Под шум дождя(05:33)
02.Пойдем со мной(03:31)
03.Играй, играй(05:04)
04.Мона Лиза(04:19)
05.На реке(04:23)
06.Ну и пусть(03:42)
07.Маленькая Москва(04:27)
08.Облака(03:38)
09.Аэропорт(04:16)
10.Чистые ключи(02:56)
11.Звездный карнавал(04:58)
12.Я знаю теперь(04:24)
13.Поверь в себя(03:52)
14.Русский снег(04:21)
15.Держись(03:32)
16.Одинокий день(04:40)
17.Острова(04:10)
18.Откровение(04:45)
19.Его небесные глаза(03:05)

CD 3 | 01:19:43

01.За той рекой(04:02)
02.Фея с НЛО(06:02)
03.Я пройду(05:00)
04.Дождь и снег(04:35)
05.Парус(05:07)
06.Королева бала(04:48)
07.У ворот(04:47)
08.Спасательный круг(04:33)
09.Каюсь(04:50)
10.Коснись меня(04:18)
11.Мороз(05:04)
12.На дороге(03:06)
13.Ночной клуб(04:08)
14.Первый снег(03:36)
15.Ступени(04:29)
16.68(04:05)
17.Beladonna(04:48)
18.Rock-n-Roll(02:33)

CD 4 | 01:18:05

01.Никогда не поздно(03:55)
02.Белые туманы(05:14)
03.Волга-река(05:22)
04.Джамайка(06:18)
05.Диво-дивное(02:56)
06.Ее зовут Нелли(04:14)
07.Ну а мне за тебя(04:41)
08.О любви(05:08)
09.Регги для тебя(04:27)
10.Я пою(04:46)
11.Бабочка(04:36)
12.Весна(03:32)
13.Казак(03:33)
14.Мир надежд моих(03:18)
15.Маша(03:01)
16.Лампа на столе(05:56)
17.Река любви(04:03)
18.Лира(03:14)
-

лог создания рипа

CD 1

Exact Audio Copy V1.0 beta 1 from 15. November 2010
EAC extraction logfile from 2. January 2012, 15:37
Александр Барыкин & Карнавал / Избранное (CD1)
Used drive  : ATAPI   iHAP122   W   Adapter: 1  ID: 0
Read mode               : Secure
Utilize accurate stream : Yes
Defeat audio cache      : Yes
Make use of C2 pointers : No
Read offset correction                      : 6
Overread into Lead-In and Lead-Out          : No
Fill up missing offset samples with silence : Yes
Delete leading and trailing silent blocks   : No
Null samples used in CRC calculations       : Yes
Used interface                              : Native Win32 interface for Win NT & 2000
Used output format : Internal WAV Routines
Sample format      : 44.100 Hz; 16 Bit; Stereo
TOC of the extracted CD
     Track |   Start  |  Length  | Start sector | End sector
    ---------------------------------------------------------
        1  |  0:00.00 |  4:37.40 |         0    |    20814
        2  |  4:37.40 |  4:29.31 |     20815    |    41020
        3  |  9:06.71 |  4:44.50 |     41021    |    62370
        4  | 13:51.46 |  3:52.14 |     62371    |    79784
        5  | 17:43.60 |  4:26.11 |     79785    |    99745
        6  | 22:09.71 |  3:48.00 |     99746    |   116845
        7  | 25:57.71 |  5:13.70 |    116846    |   140390
        8  | 31:11.66 |  3:55.38 |    140391    |   158053
        9  | 35:07.29 |  3:42.12 |    158054    |   174715
       10  | 38:49.41 |  5:53.24 |    174716    |   201214
       11  | 44:42.65 |  4:35.41 |    201215    |   221880
       12  | 49:18.31 |  4:45.42 |    221881    |   243297
       13  | 54:03.73 |  4:20.25 |    243298    |   262822
       14  | 58:24.23 |  4:44.45 |    262823    |   284167
       15  | 63:08.68 |  3:57.32 |    284168    |   301974
       16  | 67:06.25 |  3:31.44 |    301975    |   317843
       17  | 70:37.69 |  3:40.00 |    317844    |   334343
       18  | 74:17.69 |  4:24.51 |    334344    |   354194
Range status and errors
Selected range
     Filename C:\MusicBox\Александр Барыкин & Карнавал - Избранное (CD1).wav
     Peak level 100.0 %
     Extraction speed 0.5 X
     Range quality 99.9 %
     Copy CRC 8ADAFBB2
     Copy OK
No errors occurred
End of status report

CD 2

Exact Audio Copy V1.0 beta 1 from 15. November 2010
EAC extraction logfile from 2. January 2012, 16:08
Александр Барыкин & Карнавал / Избранное (CD2)
Used drive  : ATAPI   iHAP122   W   Adapter: 1  ID: 0
Read mode               : Secure
Utilize accurate stream : Yes
Defeat audio cache      : Yes
Make use of C2 pointers : No
Read offset correction                      : 6
Overread into Lead-In and Lead-Out          : No
Fill up missing offset samples with silence : Yes
Delete leading and trailing silent blocks   : No
Null samples used in CRC calculations       : Yes
Used interface                              : Native Win32 interface for Win NT & 2000
Used output format : Internal WAV Routines
Sample format      : 44.100 Hz; 16 Bit; Stereo
TOC of the extracted CD
     Track |   Start  |  Length  | Start sector | End sector
    ---------------------------------------------------------
        1  |  0:00.00 |  5:32.18 |         0    |    24917
        2  |  5:32.18 |  3:30.33 |     24918    |    40700
        3  |  9:02.51 |  5:03.46 |     40701    |    63471
        4  | 14:06.22 |  4:18.74 |     63472    |    82895
        5  | 18:25.21 |  4:22.48 |     82896    |   102593
        6  | 22:47.69 |  3:41.04 |    102594    |   119172
        7  | 26:28.73 |  4:26.40 |    119173    |   139162
        8  | 30:55.38 |  3:37.44 |    139163    |   155481
        9  | 34:33.07 |  4:15.14 |    155482    |   174620
       10  | 38:48.21 |  2:55.40 |    174621    |   187785
       11  | 41:43.61 |  4:57.55 |    187786    |   210115
       12  | 46:41.41 |  4:23.68 |    210116    |   229908
       13  | 51:05.34 |  3:51.58 |    229909    |   247291
       14  | 54:57.17 |  4:20.74 |    247292    |   266865
       15  | 59:18.16 |  3:31.49 |    266866    |   282739
       16  | 62:49.65 |  4:39.56 |    282740    |   303720
       17  | 67:29.46 |  4:09.40 |    303721    |   322435
       18  | 71:39.11 |  4:44.39 |    322436    |   343774
       19  | 76:23.50 |  3:04.59 |    343775    |   357633
Range status and errors
Selected range
     Filename C:\MusicBox\Александр Барыкин & Карнавал - Избранное (CD2).wav
     Peak level 100.0 %
     Extraction speed 0.3 X
     Range quality 99.9 %
     Copy CRC C2A8418F
     Copy OK
No errors occurred
End of status report

CD 3

Exact Audio Copy V1.0 beta 1 from 15. November 2010
EAC extraction logfile from 2. January 2012, 16:37
Александр Барыкин & Карнавал / Избранное (CD3)
Used drive  : ATAPI   iHAP122   W   Adapter: 1  ID: 0
Read mode               : Secure
Utilize accurate stream : Yes
Defeat audio cache      : Yes
Make use of C2 pointers : No
Read offset correction                      : 6
Overread into Lead-In and Lead-Out          : No
Fill up missing offset samples with silence : Yes
Delete leading and trailing silent blocks   : No
Null samples used in CRC calculations       : Yes
Used interface                              : Native Win32 interface for Win NT & 2000
Used output format : Internal WAV Routines
Sample format      : 44.100 Hz; 16 Bit; Stereo
TOC of the extracted CD
     Track |   Start  |  Length  | Start sector | End sector
    ---------------------------------------------------------
        1  |  0:00.00 |  4:01.51 |         0    |    18125
        2  |  4:01.51 |  6:01.74 |     18126    |    45274
        3  | 10:03.50 |  4:59.53 |     45275    |    67752
        4  | 15:03.28 |  4:34.29 |     67753    |    88331
        5  | 19:37.57 |  5:06.44 |     88332    |   111325
        6  | 24:44.26 |  4:47.19 |    111326    |   132869
        7  | 29:31.45 |  4:46.34 |    132870    |   154353
        8  | 34:18.04 |  4:32.59 |    154354    |   174812
        9  | 38:50.63 |  4:49.48 |    174813    |   196535
       10  | 43:40.36 |  4:17.16 |    196536    |   215826
       11  | 47:57.52 |  5:03.10 |    215827    |   238561
       12  | 53:00.62 |  3:05.22 |    238562    |   252458
       13  | 56:06.09 |  4:07.35 |    252459    |   271018
       14  | 60:13.44 |  3:35.54 |    271019    |   287197
       15  | 63:49.23 |  4:28.41 |    287198    |   307338
       16  | 68:17.64 |  4:04.48 |    307339    |   325686
       17  | 72:22.37 |  4:47.43 |    325687    |   347254
       18  | 77:10.05 |  2:32.53 |    347255    |   358707
Range status and errors
Selected range
     Filename C:\MusicBox\Александр Барыкин & Карнавал - Избранное (CD3).wav
     Peak level 100.0 %
     Extraction speed 0.3 X
     Range quality 100.0 %
     Copy CRC F059AB0A
     Copy OK
No errors occurred
End of status report

CD 4

Exact Audio Copy V1.0 beta 1 from 15. November 2010
EAC extraction logfile from 2. January 2012, 17:00
Александр Барыкин & Карнавал / Избранное (CD4)
Used drive  : ATAPI   iHAP122   W   Adapter: 1  ID: 0
Read mode               : Secure
Utilize accurate stream : Yes
Defeat audio cache      : Yes
Make use of C2 pointers : No
Read offset correction                      : 6
Overread into Lead-In and Lead-Out          : No
Fill up missing offset samples with silence : Yes
Delete leading and trailing silent blocks   : No
Null samples used in CRC calculations       : Yes
Used interface                              : Native Win32 interface for Win NT & 2000
Used output format : Internal WAV Routines
Sample format      : 44.100 Hz; 16 Bit; Stereo
TOC of the extracted CD
     Track |   Start  |  Length  | Start sector | End sector
    ---------------------------------------------------------
        1  |  0:00.00 |  3:54.73 |         0    |    17622
        2  |  3:54.73 |  5:13.12 |     17623    |    41109
        3  |  9:08.10 |  5:21.16 |     41110    |    65200
        4  | 14:29.26 |  6:17.43 |     65201    |    93518
        5  | 20:46.69 |  2:55.41 |     93519    |   106684
        6  | 23:42.35 |  4:13.32 |    106685    |   125691
        7  | 27:55.67 |  4:40.34 |    125692    |   146725
        8  | 32:36.26 |  5:07.23 |    146726    |   169773
        9  | 37:43.49 |  4:26.41 |    169774    |   189764
       10  | 42:10.15 |  4:45.45 |    189765    |   211184
       11  | 46:55.60 |  4:35.37 |    211185    |   231846
       12  | 51:31.22 |  3:31.26 |    231847    |   247697
       13  | 55:02.48 |  3:32.13 |    247698    |   263610
       14  | 58:34.61 |  3:17.41 |    263611    |   278426
       15  | 61:52.27 |  3:00.08 |    278427    |   291934
       16  | 64:52.35 |  5:55.25 |    291935    |   318584
       17  | 70:47.60 |  4:02.70 |    318585    |   336804
       18  | 74:50.55 |  3:13.38 |    336805    |   351317
Range status and errors
Selected range
     Filename C:\MusicBox\Александр Барыкин & Карнавал - Избранное (CD4).wav
     Peak level 100.0 %
     Extraction speed 0.4 X
     Range quality 100.0 %
     Copy CRC F37A9693
     Copy OK
No errors occurred
End of status report

содержание индексной карты *cue

CD 1

REM DISCID 0E127212
REM COMMENT "ExactAudioCopy v1.0b1"
PERFORMER "Александр Барыкин & Карнавал"
TITLE "Избранное (CD1)"
FILE "Александр Барыкин & Карнавал - Избранное (CD1).flac" WAVE
  TRACK 01 AUDIO
    TITLE "Друг или враг"
    PERFORMER "Александр Барыкин & Карнавал"
    ISRC 000000000000
    INDEX 01 00:00:00
  TRACK 02 AUDIO
    TITLE "Судьба"
    PERFORMER "Александр Барыкин & Карнавал"
    ISRC 000000000000
    INDEX 01 04:37:40
  TRACK 03 AUDIO
    TITLE "Горько"
    PERFORMER "Александр Барыкин & Карнавал"
    ISRC 000000000000
    INDEX 01 09:06:71
  TRACK 04 AUDIO
    TITLE "Super woman"
    PERFORMER "Александр Барыкин & Карнавал"
    ISRC 000000000000
    INDEX 01 13:51:46
  TRACK 05 AUDIO
    TITLE "Все пройдет"
    PERFORMER "Александр Барыкин & Карнавал"
    ISRC 000000000000
    INDEX 01 17:43:60
  TRACK 06 AUDIO
    TITLE "Сон"
    PERFORMER "Александр Барыкин & Карнавал"
    ISRC 000000000000
    INDEX 01 22:09:71
  TRACK 07 AUDIO
    TITLE "Птицы"
    PERFORMER "Александр Барыкин & Карнавал"
    ISRC 000000000000
    INDEX 01 25:57:71
  TRACK 08 AUDIO
    TITLE "Жил как жил"
    PERFORMER "Александр Барыкин & Карнавал"
    ISRC 000000000000
    INDEX 01 31:11:66
  TRACK 09 AUDIO
    TITLE "Молоко"
    PERFORMER "Александр Барыкин & Карнавал"
    ISRC 000000000000
    INDEX 01 35:07:29
  TRACK 10 AUDIO
    TITLE "Брат"
    PERFORMER "Александр Барыкин & Карнавал"
    ISRC 000000000000
    INDEX 01 38:49:41
  TRACK 11 AUDIO
    TITLE "Осень пришла"
    PERFORMER "Александр Барыкин & Карнавал"
    ISRC 000000000000
    INDEX 01 44:42:65
  TRACK 12 AUDIO
    TITLE "Дали"
    PERFORMER "Александр Барыкин & Карнавал"
    ISRC 000000000000
    INDEX 01 49:18:31
  TRACK 13 AUDIO
    TITLE "Тает, тает"
    PERFORMER "Александр Барыкин & Карнавал"
    ISRC 000000000000
    INDEX 01 54:03:73
  TRACK 14 AUDIO
    TITLE "Волга"
    PERFORMER "Александр Барыкин & Карнавал"
    ISRC 000000000000
    INDEX 01 58:24:23
  TRACK 15 AUDIO
    TITLE "Букет (ремикс)"
    PERFORMER "Александр Барыкин & Карнавал"
    ISRC 000000000000
    INDEX 01 63:08:68
  TRACK 16 AUDIO
    TITLE "Игрок"
    PERFORMER "Александр Барыкин & Карнавал"
    ISRC 000000000000
    INDEX 01 67:06:25
  TRACK 17 AUDIO
    TITLE "20-00"
    PERFORMER "Александр Барыкин & Карнавал"
    ISRC 000000000000
    INDEX 01 70:37:69
  TRACK 18 AUDIO
    TITLE "Девчонка"
    PERFORMER "Александр Барыкин & Карнавал"
    ISRC 000000000000
    INDEX 01 74:17:69

CD 2

REM DISCID 0C12A013
REM COMMENT "ExactAudioCopy v1.0b1"
PERFORMER "Александр Барыкин & Карнавал"
TITLE "Избранное (CD2)"
FILE "Александр Барыкин & Карнавал - Избранное (CD2).flac" WAVE
  TRACK 01 AUDIO
    TITLE "Под шум дождя"
    PERFORMER "Александр Барыкин & Карнавал"
    ISRC 000000000000
    INDEX 01 00:00:00
  TRACK 02 AUDIO
    TITLE "Пойдем со мной"
    PERFORMER "Александр Барыкин & Карнавал"
    ISRC 000000000000
    INDEX 01 05:32:18
  TRACK 03 AUDIO
    TITLE "Играй, играй"
    PERFORMER "Александр Барыкин & Карнавал"
    ISRC 000000000000
    INDEX 01 09:02:51
  TRACK 04 AUDIO
    TITLE "Мона Лиза"
    PERFORMER "Александр Барыкин & Карнавал"
    ISRC 000000000000
    INDEX 01 14:06:22
  TRACK 05 AUDIO
    TITLE "На реке"
    PERFORMER "Александр Барыкин & Карнавал"
    ISRC 000000000000
    INDEX 01 18:25:21
  TRACK 06 AUDIO
    TITLE "Ну и пусть"
    PERFORMER "Александр Барыкин & Карнавал"
    ISRC 000000000000
    INDEX 01 22:47:69
  TRACK 07 AUDIO
    TITLE "Маленькая Москва"
    PERFORMER "Александр Барыкин & Карнавал"
    ISRC 000000000000
    INDEX 01 26:28:73
  TRACK 08 AUDIO
    TITLE "Облака"
    PERFORMER "Александр Барыкин & Карнавал"
    ISRC 000000000000
    INDEX 01 30:55:38
  TRACK 09 AUDIO
    TITLE "Аэропорт"
    PERFORMER "Александр Барыкин & Карнавал"
    ISRC 000000000000
    INDEX 01 34:33:07
  TRACK 10 AUDIO
    TITLE "Чистые ключи"
    PERFORMER "Александр Барыкин & Карнавал"
    ISRC 000000000000
    INDEX 01 38:48:21
  TRACK 11 AUDIO
    TITLE "Звездный карнавал"
    PERFORMER "Александр Барыкин & Карнавал"
    ISRC 000000000000
    INDEX 01 41:43:61
  TRACK 12 AUDIO
    TITLE "Я знаю теперь"
    PERFORMER "Александр Барыкин & Карнавал"
    ISRC 000000000000
    INDEX 01 46:41:41
  TRACK 13 AUDIO
    TITLE "Поверь в себя"
    PERFORMER "Александр Барыкин & Карнавал"
    ISRC 000000000000
    INDEX 01 51:05:34
  TRACK 14 AUDIO
    TITLE "Русский снег"
    PERFORMER "Александр Барыкин & Карнавал"
    ISRC 000000000000
    INDEX 01 54:57:17
  TRACK 15 AUDIO
    TITLE "Держись"
    PERFORMER "Александр Барыкин & Карнавал"
    ISRC 000000000000
    INDEX 01 59:18:16
  TRACK 16 AUDIO
    TITLE "Одинокий день"
    PERFORMER "Александр Барыкин & Карнавал"
    ISRC 000000000000
    INDEX 01 62:49:65
  TRACK 17 AUDIO
    TITLE "Острова"
    PERFORMER "Александр Барыкин & Карнавал"
    ISRC 000000000000
    INDEX 01 67:29:46
  TRACK 18 AUDIO
    TITLE "Откровение"
    PERFORMER "Александр Барыкин & Карнавал"
    ISRC 000000000000
    INDEX 01 71:39:11
  TRACK 19 AUDIO
    TITLE "Его небесные глаза"
    PERFORMER "Александр Барыкин & Карнавал"
    ISRC 000000000000
    INDEX 01 76:23:50

CD 3

REM DISCID 0812AE12
REM COMMENT "ExactAudioCopy v1.0b1"
PERFORMER "Александр Барыкин & Карнавал"
TITLE "Избранное (CD3)"
FILE "Александр Барыкин & Карнавал - Избранное (CD3).flac" WAVE
  TRACK 01 AUDIO
    TITLE "За той рекой"
    PERFORMER "Александр Барыкин & Карнавал"
    ISRC 000000000000
    INDEX 01 00:00:00
  TRACK 02 AUDIO
    TITLE "Фея с НЛО"
    PERFORMER "Александр Барыкин & Карнавал"
    ISRC 000000000000
    INDEX 01 04:01:51
  TRACK 03 AUDIO
    TITLE "Я пройду"
    PERFORMER "Александр Барыкин & Карнавал"
    ISRC 000000000000
    INDEX 01 10:03:50
  TRACK 04 AUDIO
    TITLE "Дождь и снег"
    PERFORMER "Александр Барыкин & Карнавал"
    ISRC 000000000000
    INDEX 01 15:03:28
  TRACK 05 AUDIO
    TITLE "Парус"
    PERFORMER "Александр Барыкин & Карнавал"
    ISRC 000000000000
    INDEX 01 19:37:57
  TRACK 06 AUDIO
    TITLE "Королева бала"
    PERFORMER "Александр Барыкин & Карнавал"
    ISRC 000000000000
    INDEX 01 24:44:26
  TRACK 07 AUDIO
    TITLE "У ворот"
    PERFORMER "Александр Барыкин & Карнавал"
    ISRC 000000000000
    INDEX 01 29:31:45
  TRACK 08 AUDIO
    TITLE "Спасательный круг"
    PERFORMER "Александр Барыкин & Карнавал"
    ISRC 000000000000
    INDEX 01 34:18:04
  TRACK 09 AUDIO
    TITLE "Каюсь"
    PERFORMER "Александр Барыкин & Карнавал"
    ISRC 000000000000
    INDEX 01 38:50:63
  TRACK 10 AUDIO
    TITLE "Коснись меня"
    PERFORMER "Александр Барыкин & Карнавал"
    ISRC 000000000000
    INDEX 01 43:40:36
  TRACK 11 AUDIO
    TITLE "Мороз"
    PERFORMER "Александр Барыкин & Карнавал"
    ISRC 000000000000
    INDEX 01 47:57:52
  TRACK 12 AUDIO
    TITLE "На дороге"
    PERFORMER "Александр Барыкин & Карнавал"
    ISRC 000000000000
    INDEX 01 53:00:62
  TRACK 13 AUDIO
    TITLE "Ночной клуб"
    PERFORMER "Александр Барыкин & Карнавал"
    ISRC 000000000000
    INDEX 01 56:06:09
  TRACK 14 AUDIO
    TITLE "Первый снег"
    PERFORMER "Александр Барыкин & Карнавал"
    ISRC 000000000000
    INDEX 01 60:13:44
  TRACK 15 AUDIO
    TITLE "Ступени"
    PERFORMER "Александр Барыкин & Карнавал"
    ISRC 000000000000
    INDEX 01 63:49:23
  TRACK 16 AUDIO
    TITLE "68"
    PERFORMER "Александр Барыкин & Карнавал"
    ISRC 000000000000
    INDEX 01 68:17:64
  TRACK 17 AUDIO
    TITLE "Beladonna"
    PERFORMER "Александр Барыкин & Карнавал"
    ISRC 000000000000
    INDEX 01 72:22:37
  TRACK 18 AUDIO
    TITLE "Rock-n-Roll"
    PERFORMER "Александр Барыкин & Карнавал"
    ISRC 000000000000
    INDEX 01 77:10:05

CD 4

REM DISCID 10124C12
REM COMMENT "ExactAudioCopy v1.0b1"
PERFORMER "Александр Барыкин & Карнавал"
TITLE "Избранное (CD4)"
FILE "Александр Барыкин & Карнавал - Избранное (CD4).flac" WAVE
  TRACK 01 AUDIO
    TITLE "Никогда не поздно"
    PERFORMER "Александр Барыкин & Карнавал"
    ISRC 000000000000
    INDEX 01 00:00:00
  TRACK 02 AUDIO
    TITLE "Белые туманы"
    PERFORMER "Александр Барыкин & Карнавал"
    ISRC 000000000000
    INDEX 01 03:54:73
  TRACK 03 AUDIO
    TITLE "Волга-река"
    PERFORMER "Александр Барыкин & Карнавал"
    ISRC 000000000000
    INDEX 01 09:08:10
  TRACK 04 AUDIO
    TITLE "Джамайка"
    PERFORMER "Александр Барыкин & Карнавал"
    ISRC 000000000000
    INDEX 01 14:29:26
  TRACK 05 AUDIO
    TITLE "Диво-дивное"
    PERFORMER "Александр Барыкин & Карнавал"
    ISRC 000000000000
    INDEX 01 20:46:69
  TRACK 06 AUDIO
    TITLE "Ее зовут Нелли"
    PERFORMER "Александр Барыкин & Карнавал"
    ISRC 000000000000
    INDEX 01 23:42:35
  TRACK 07 AUDIO
    TITLE "Ну а мне за тебя"
    PERFORMER "Александр Барыкин & Карнавал"
    ISRC 000000000000
    INDEX 01 27:55:67
  TRACK 08 AUDIO
    TITLE "О любви"
    PERFORMER "Александр Барыкин & Карнавал"
    ISRC 000000000000
    INDEX 01 32:36:26
  TRACK 09 AUDIO
    TITLE "Регги для тебя"
    PERFORMER "Александр Барыкин & Карнавал"
    ISRC 000000000000
    INDEX 01 37:43:49
  TRACK 10 AUDIO
    TITLE "Я пою"
    PERFORMER "Александр Барыкин & Карнавал"
    ISRC 000000000000
    INDEX 01 42:10:15
  TRACK 11 AUDIO
    TITLE "Бабочка"
    PERFORMER "Александр Барыкин & Карнавал"
    ISRC 000000000000
    INDEX 01 46:55:60
  TRACK 12 AUDIO
    TITLE "Весна"
    PERFORMER "Александр Барыкин & Карнавал"
    ISRC 000000000000
    INDEX 01 51:31:22
  TRACK 13 AUDIO
    TITLE "Казак"
    PERFORMER "Александр Барыкин & Карнавал"
    ISRC 000000000000
    INDEX 01 55:02:48
  TRACK 14 AUDIO
    TITLE "Мир надежд моих"
    PERFORMER "Александр Барыкин & Карнавал"
    ISRC 000000000000
    INDEX 01 58:34:61
  TRACK 15 AUDIO
    TITLE "Маша"
    PERFORMER "Александр Барыкин & Карнавал"
    ISRC 000000000000
    INDEX 01 61:52:27
  TRACK 16 AUDIO
    TITLE "Лампа на столе"
    PERFORMER "Александр Барыкин & Карнавал"
    ISRC 000000000000
    INDEX 01 64:52:35
  TRACK 17 AUDIO
    TITLE "Река любви"
    PERFORMER "Александр Барыкин & Карнавал"
    ISRC 000000000000
    INDEX 01 70:47:60
  TRACK 18 AUDIO
    TITLE "Лира"
    PERFORMER "Александр Барыкин & Карнавал"
    ISRC 000000000000
    INDEX 01 74:50:55

Лог Audiochecker:

CD 1

AUDIOCHECKER v2.0 beta (build 457) - by Dester - opdester@freemail.hu
~~~~~~~~~~~~~~~~~~~~~~~~~~~~~~~~~~
-=== НЕ РЕДАКТИРУЙТЕ ЭТОТ ФАЙЛ! ===-
Путь: ...\CD1
1 -=- Александр Барыкин & Карнавал - Избранное (CD1).flac -=- CDDA (100%)
185995876

CD 2

AUDIOCHECKER v2.0 beta (build 457) - by Dester - opdester@freemail.hu
~~~~~~~~~~~~~~~~~~~~~~~~~~~~~~~~~~
-=== НЕ РЕДАКТИРУЙТЕ ЭТОТ ФАЙЛ! ===-
Путь: ...\CD2
1 -=- Александр Барыкин & Карнавал - Избранное (CD2).flac -=- CDDA (99%)
112380564

CD 3

AUDIOCHECKER v2.0 beta (build 457) - by Dester - opdester@freemail.hu
~~~~~~~~~~~~~~~~~~~~~~~~~~~~~~~~~~
-=== НЕ РЕДАКТИРУЙТЕ ЭТОТ ФАЙЛ! ===-
Путь: ...\CD3
1 -=- Александр Барыкин & Карнавал - Избранное (CD3).flac -=- CDDA (100%)
185864804

CD 4

AUDIOCHECKER v2.0 beta (build 457) - by Dester - opdester@freemail.hu
~~~~~~~~~~~~~~~~~~~~~~~~~~~~~~~~~~
-=== НЕ РЕДАКТИРУЙТЕ ЭТОТ ФАЙЛ! ===-
Путь: ...\CD4
1 -=- Александр Барыкин & Карнавал - Избранное (CD4).flac -=- CDDA (100%)
185668196
-- --
[Профиль] [ЛС]
Показать сообщения:    

Текущее время: Сегодня 14:37

Часовой пояс: GMT



Вы не можете начинать темы
Вы не можете отвечать на сообщения
Вы не можете редактировать свои сообщения
Вы не можете удалять свои сообщения
Вы не можете голосовать в опросах
Вы не можете прикреплять файлы к сообщениям
Вы не можете скачивать файлы