Бармен (2015) DVDRip | Лицензия

 
Автор Сообщение

BOSS ®

Пол:

Стаж: 2 года 1 месяц

Сообщений: 3719

Откуда: ODESSA



Награды: 20 (Подробнее)

Mega Seeder 2 (Количество: 1) Top Keeper 4 (Количество: 1) Top Seeder 4 (Количество: 1)
Торрент-статистика

Создавать темы 13-Сен-2016 06:01

[Цитировать]

Информация о фильме
Название: Бармен
Год выхода: 2015
Жанр: Комедия, фэнтези
Режиссер: Дина Штурманова
В ролях: Виталий Гогунский, Иван Охлобыстин, Юлия Паршута, Юрий Стоянов, Жанна Эппле, Константин Крюков, Антон Богданов, Ольга Бузова, Евгения Ярушникова, Константин Федоров
О фильме:
Вадик мечтает изменить свою скучную жизнь, но страх неудачи и неуверенность в себе мешают парню двигаться к цели. Все меняется, когда Вадик случайно забредает в пустой бар и выпивает коктейль по рецепту загадочного Бармена. Отныне он — мистер Харизма, и весь мир лежит у его ног. Даже красавица Юля, о которой раньше он не смел и мечтать, обратила на него внимание. Новый коктейль — новый талант: сегодня Вадик — интеллектуал, завтра — король танцпола… Вот только действуют волшебные напитки недолго и имеют не очень приятный побочный эффект…

Страна: Россия
Студия: Art Pictures Studio, ВайТ Медиа
Продолжительность: 01:28:17
Перевод: Не требуется [Лицензия]
Файл
Качество: DVDRip
Кодек: XviD
Видео: 688x288 (2,35:1), 25 fps, XviD ~1040 kbps avg, 0.210 bit/pixel
Аудио: МР3, 48 kHz, 2 ch, ~128.00 kbps avg | русский |
Субтитры: Отсутствуют
Семпл

Инфо-файл

Общее
Полное имя : Barmen.2015.O.DVDRip.745Mb.avi
Формат : AVI
Формат/Информация : Audio Video Interleave
Размер файла : 744 Мбайт
Продолжительность : 1 ч. 28 м.
Общий поток : 1178 Кбит/сек
Программа кодирования : VirtualDubMod 1.5.10.3 (build 2550/release)
Библиотека кодирования : VirtualDubMod build 2550/release
Видео
Идентификатор : 0
Формат : MPEG-4 Visual
Профиль формата : Advanced Simple@L5
Параметр BVOP формата : 2
Параметр QPel формата : Нет
Параметр GMC формата : Без точки перехода
Параметр матрицы формата : Default (MPEG)
Режим смешивания : Сжатый битовый поток
Идентификатор кодека : XVID
Идентификатор кодека/Подсказка : XviD
Продолжительность : 1 ч. 28 м.
Битрейт : 1040 Кбит/сек
Ширина : 688 пикселей
Высота : 288 пикселей
Соотношение сторон : 2,40:1
Частота кадров : 25,000 кадров/сек
Цветовое пространство : YUV
Субдискретизация насыщенности : 4:2:0
Битовая глубина : 8 бит
Тип развёртки : Прогрессивная
Метод сжатия : С потерями
Бит/(Пиксели*Кадры) : 0.210
Размер потока : 657 Мбайт (88%)
Библиотека кодирования : XviD 73
Аудио
Идентификатор : 1
Формат : MPEG Audio
Версия формата : Version 1
Профиль формата : Layer 3
Режим : Joint stereo
Расширение режима : MS Stereo
Идентификатор кодека : 55
Идентификатор кодека/Подсказка : MP3
Продолжительность : 1 ч. 28 м.
Вид битрейта : Постоянный
Битрейт : 128 Кбит/сек
Каналы : 2 канала
Частота : 48,0 КГц
Метод сжатия : С потерями
Размер потока : 80,8 Мбайт (11%)
Выравнивание : Соединение по промежуткам
Продолжительность промежутка : 40 мс. (1,00 видеокадр)
Время предзагрузки промежутка : 504 мс.
Библиотека кодирования : LAME3.97

Скриншоты

[Профиль] [ЛС]
Показать сообщения:    

Текущее время: Сегодня 22:40

Часовой пояс: GMT



Вы не можете начинать темы
Вы не можете отвечать на сообщения
Вы не можете редактировать свои сообщения
Вы не можете удалять свои сообщения
Вы не можете голосовать в опросах
Вы не можете прикреплять файлы к сообщениям
Вы не можете скачивать файлы