Бармен (2015) WEB-DLRip-AVC | iTunes

 
Автор Сообщение

достали все ®

Пол:

Стаж: 1 год 8 месяцев

Сообщений: 6545



Награды: 12 (Подробнее)

Top Releaser 4 (Количество: 1) Mega Releaser 3 (Количество: 1) Mega Seeder 3 (Количество: 1)
Торрент-статистика

Создавать темы 16-Июл-2015 07:06

[Цитировать]

Информация о фильме
Оригинальное название: Бармен
Год выпуска: 2015
Жанр: Комедия
Выпущено: Россия, Art Pictures Studio, ВайТ Медиа
Режиссер: Дина Штурманова
В ролях: Виталий Гогунский, Иван Охлобыстин, Юлия Паршута, Юрий Стоянов, Жанна Эппле, Константин Крюков, Антон Богданов, Ольга Бузова, Евгения Ярушникова, Константин Федоров
О фильме: Вадик мечтает изменить свою скучную жизнь, но страх неудачи и неуверенность в себе мешают парню двигаться к цели. Все меняется, когда Вадик случайно забредает в пустой бар и выпивает коктейль по рецепту загадочного Бармена. Отныне он — мистер Харизма, и весь мир лежит у его ног. Даже красавица Юля, о которой раньше он не смел и мечтать, обратила на него внимание. Новый коктейль — новый талант: сегодня Вадик — интеллектуал, завтра — король танцпола… Вот только действуют волшебные напитки недолго и имеют не очень приятный побочный эффект…
Файл
Качество: WEB-DLRip-AVC
Видео: MPEG-4 AVC, 1885 Кбит/с, 1024x426
Аудио: AC3, 6 ch, 384 Кбит/с
Размер: 1.46 ГБ
Продолжительность: 01:31:57
Перевод: Не требуется (русский) [iTunes]
Семпл

MI

x264 [info]: frame I:1467 Avg QP:15.47 size: 64344
x264 [info]: frame P:35741 Avg QP:18.40 size: 19042
x264 [info]: frame B:95207 Avg QP:20.49 size: 5511
Общее
Уникальный идентификатор : 207134302599806357981862331656885127638 (0x9BD49D973824041A879443A1DC8A49D6)
Полное имя : C:Barm3n.2015.O.WEB-DL.Rip.AVC.by.bog3417.mkv
Формат : Matroska
Версия формата : Version 2
Размер файла : 1,46 Гбайт
Продолжительность : 1 ч. 31 м.
Общий поток : 2270 Кбит/сек
Название фильма : Barm3n.2015.O.WEB-DL.Rip.AVC.by.bog3417
Дата кодирования : UTC 2015-07-15 21:45:54
Программа кодирования : mkvmerge v7.9.0 ('Birds') 64bit
Библиотека кодирования : libebml v1.3.1 + libmatroska v1.4.2
Видео
Идентификатор : 1
Формат : AVC
Формат/Информация : Advanced Video Codec
Профиль формата : High@L4.1
Параметр CABAC формата : Да
Параметр ReFrames формата : 9 кадров
Идентификатор кодека : V_MPEG4/ISO/AVC
Продолжительность : 1 ч. 31 м.
Битрейт : 1885 Кбит/сек
Ширина : 1024 пикселя
Высота : 426 пикселей
Соотношение сторон : 2,40:1
Режим частоты кадров : Постоянный
Частота кадров : 24,000 кадра/сек
Цветовое пространство : YUV
Субдискретизация насыщенности : 4:2:0
Битовая глубина : 8 бит
Тип развёртки : Прогрессивная
Бит/(Пиксели*Кадры) : 0.180
Размер потока : 1,18 Гбайт (81%)
Библиотека кодирования : x264 core 146 r2538 121396c
Настройки программы : cabac=1 / ref=9 / deblock=1:-3:-3 / analyse=0x3:0x33 / me=umh / subme=11 / psy=1 / psy_rd=1.00:0.00 / mixed_ref=1 / me_range=32 / chroma_me=1 / trellis=2 / 8x8dct=1 / cqm=0 / deadzone=21,11 / fast_pskip=0 / chroma_qp_offset=-2 / threads=12 / lookahead_threads=2 / sliced_threads=0 / nr=0 / decimate=0 / interlaced=0 / bluray_compat=0 / constrained_intra=0 / bframes=9 / b_pyramid=2 / b_adapt=2 / b_bias=0 / direct=3 / weightb=1 / open_gop=1 / weightp=2 / keyint=240 / keyint_min=23 / scenecut=40 / intra_refresh=0 / rc=2pass / mbtree=0 / bitrate=1885 / ratetol=1.0 / qcomp=0.60 / qpmin=0 / qpmax=69 / qpstep=4 / cplxblur=20.0 / qblur=0.5 / ip_ratio=1.40 / pb_ratio=1.30 / aq=3:0.90
Язык : English
Default : Да
Forced : Нет
Аудио
Идентификатор : 2
Формат : AC-3
Формат/Информация : Audio Coding 3
Расширение режима : CM (complete main)
Параметр Endianness формата : Big
Идентификатор кодека : A_AC3
Продолжительность : 1 ч. 31 м.
Вид битрейта : Постоянный
Битрейт : 384 Кбит/сек
Каналы : 6 каналов
Расположение каналов : Front: L C R, Side: L R, LFE
Частота : 48,0 КГц
Метод сжатия : С потерями
Размер потока : 253 Мбайт (17%)
Язык : Russian
Default : Да
Forced : Нет
Меню
00:00:00.000 : en:Глава 1
00:04:23.000 : en:Глава 2
00:10:33.000 : en:Глава 3
00:15:18.000 : en:Глава 4
00:21:28.000 : en:Глава 5
00:26:21.000 : en:Глава 6
00:30:32.000 : en:Глава 7
00:35:38.000 : en:Глава 8
00:39:54.000 : en:Глава 9
00:45:20.000 : en:Глава 10
00:51:52.000 : en:Глава 11
00:56:16.000 : en:Глава 12
01:02:50.000 : en:Глава 13
01:07:58.000 : en:Глава 14
01:14:00.000 : en:Глава 15
01:19:05.000 : en:Глава 16
01:25:17.000 : en:Глава 17

Скриншоты



[Профиль] [ЛС]
Показать сообщения:    

Текущее время: Сегодня 22:42

Часовой пояс: GMT



Вы не можете начинать темы
Вы не можете отвечать на сообщения
Вы не можете редактировать свои сообщения
Вы не можете удалять свои сообщения
Вы не можете голосовать в опросах
Вы не можете прикреплять файлы к сообщениям
Вы не можете скачивать файлы