Барби: Балерина в розовых пуантах / Barbie in The Pink Shoes (2013) BDRip 720p

 
Автор Сообщение

sergej644 ®

Пол:

Стаж: 4 года 11 месяцев

Сообщений: 6040

Откуда: Soviet Union



Награды: Нет

Торрент-статистика

Создавать темы 03-Сен-2014 17:43

[Цитировать]

--Барби: Балерина в розовых пуантах / Barbie in The Pink Shoes
Информация о фильме
Название: Барби: Балерина в розовых пуантах
Оригинальное название: Barbie in The Pink Shoes
Год выхода: 2013
Режиссер: Оуэн Хёрли / Owen Hurley
В ролях: Келли Шеридан, Кейт Кроун, Тревор Девалл, Бретт Диер, Али Лиеберт, Билл Монди, Кайл Райдеоут, Терил Розери
О фильме:
Очередной мультфильм о Барби порадует поклонников новой историей, где главная героиня выступит в роли балерины. Большую часть жизни она усердно тренировалась и каждый день оттачивала технику и новые движения. Однако стать выдающейся балериной ей не удавалось, так как у неё был особый взгляд на музыку и технику исполнения. Она всей душой погружалась в танец и музыку, придумывая новые движения и стили, что не очень нравилось хореографам и постановщикам, которые выделяли ей лишь эпизодические роли. Однажды они с подружкой заглянули в магазинчик, чтобы подобрать для Барби балетную обувь. Продавец оказался настолько щедр, что подарил ей прекрасные розовые пуанты, примерив которые она очутилась в волшебном мире танцев...
Страна: США
Продолжительность: 01:14:40
Перевод: Дубляж
Файл
Кодек: h264
Качество: BDRip 720 от SuperMin
Видео: 1280x720 (16:9), 3700 kbps, 23.976 fps, 0.167 bit/pixel
Звук: Русский (AC-3, 6ch, 384kbps)

Скриншоты

MI

General
Unique ID                                : 246877731490513970630645106424622938218 (0xB9BAEBEBE1593C7A85932205FD50F86A)
Complete name                            : H:МУЛЬТЫБАРБИБАРБИ - БАЛЕРИНА В РОЗОВЫХ ПУАНТАХ.mkv
Format                                   : Matroska
Format version                           : Version 4 / Version 2
File size                                : 2.13 GiB
Duration                                 : 1h 14mn
Overall bit rate                         : 4 085 Kbps
Encoded date                             : UTC 2014-09-02 05:11:20
Writing application                      : mkvmerge v6.9.1 ('Blue Panther') 64bit built on Apr 18 2014 18:23:38
Writing library                          : libebml v1.3.0 + libmatroska v1.4.1
DURATION                                 : 01:14:39.904000000
NUMBER_OF_FRAMES                         : 139997
NUMBER_OF_BYTES                          : 215035392
_STATISTICS_WRITING_APP                  : mkvmerge v7.1.0 ('Good Love') 64bit built on Jul 27 2014 13:06:55
_STATISTICS_WRITING_DATE_UTC             : 2014-08-31 10:54:04
_STATISTICS_TAGS                         : BPS DURATION NUMBER_OF_FRAMES NUMBER_OF_BYTES
Video
ID                                       : 1
Format                                   : AVC
Format/Info                              : Advanced Video Codec
Format profile                           : High@L4.1
Format settings, CABAC                   : Yes
Format settings, ReFrames                : 9 frames
Codec ID                                 : V_MPEG4/ISO/AVC
Duration                                 : 1h 14mn
Bit rate                                 : 3 700 Kbps
Width                                    : 1 280 pixels
Height                                   : 720 pixels
Display aspect ratio                     : 16:9
Frame rate mode                          : Constant
Frame rate                               : 23.976 fps
Color space                              : YUV
Chroma subsampling                       : 4:2:0
Bit depth                                : 8 bits
Scan type                                : Progressive
Bits/(Pixel*Frame)                       : 0.167
Stream size                              : 1.89 GiB (89%)
Writing library                          : x264 core 142 r2409kMod d6b4e63
Encoding settings                        : cabac=1 / ref=9 / deblock=1:0:0 / analyse=0x3:0x133 / me=umh / subme=10 / psy=1 / fade_compensate=0.00 / psy_rd=1.00:0.00 / mixed_ref=1 / me_range=32 / chroma_me=1 / trellis=2 / 8x8dct=1 / cqm=0 / deadzone=21,11 / fast_pskip=0 / chroma_qp_offset=-2 / threads=3 / lookahead_threads=1 / sliced_threads=0 / nr=0 / decimate=1 / interlaced=0 / bluray_compat=0 / constrained_intra=0 / fgo=0 / bframes=5 / b_pyramid=2 / b_adapt=1 / b_bias=0 / direct=3 / weightb=1 / open_gop=0 / weightp=2 / keyint=250 / keyint_min=25 / scenecut=40 / intra_refresh=0 / rc_lookahead=60 / rc=2pass / mbtree=1 / bitrate=3700 / ratetol=1.0 / qcomp=0.60 / qpmin=0 / qpmax=69 / qpstep=4 / cplxblur=20.0 / qblur=0.5 / ip_ratio=1.40 / aq=1:1.00
Default                                  : Yes
Forced                                   : No
Audio
ID                                       : 2
Format                                   : AC-3
Format/Info                              : Audio Coding 3
Mode extension                           : CM (complete main)
Format settings, Endianness              : Big
Codec ID                                 : A_AC3
Duration                                 : 1h 14mn
Bit rate mode                            : Constant
Bit rate                                 : 384 Kbps
Channel count                            : 6 channels
Channel positions                        : Front: L C R, Side: L R, LFE
Sampling rate                            : 48.0 KHz
Bit depth                                : 16 bits
Compression mode                         : Lossy
Stream size                              : 205 MiB (9%)
Title                                    : AC3, 6 ch, 48 kHz, 384 kbps, Dubbing
Language                                 : Russian
Default                                  : Yes
Forced                                   : No
Menu
00:00:00.000                             : en:1. Practice Makes Perfect!
00:05:39.756                             : en:2. Rehearsal
00:12:24.535                             : en:3. The Pink Shoes
00:16:01.502                             : en:4. Giselle
00:29:20.676                             : en:5. Swan Lake
00:32:08.760                             : en:6. The Sun!
00:40:03.359                             : en:7. The Ball
00:48:01.170                             : en:8. Finding a Friend
00:54:29.850                             : en:9. Kristyn's Way
00:59:34.362                             : en:10. Follow Your Instincts
01:03:44.988                             : en:11. Keep on Dancing
01:06:49.255                             : en:12. Something New
--
[Профиль] [ЛС]
Показать сообщения:    

Текущее время: Сегодня 08:51

Часовой пояс: GMT



Вы не можете начинать темы
Вы не можете отвечать на сообщения
Вы не можете редактировать свои сообщения
Вы не можете удалять свои сообщения
Вы не можете голосовать в опросах
Вы не можете прикреплять файлы к сообщениям
Вы не можете скачивать файлы