Барбароса / Barbarosa (1982) BDRemux 1080p | A

 
Автор Сообщение

Russian Mafia ®

Пол:

Стаж: 2 года 8 месяцев

Сообщений: 4249



Награды: 10 (Подробнее)

Top Releaser 2 (Количество: 1) Mega Seeder 2 (Количество: 1) Top Releaser 5 (Количество: 1)
Торрент-статистика

Создавать темы 05-Ноя-2016 15:18

[Цитировать]

Страна: США
Жанр: вестерн
Год выпуска: 1982
Продолжительность: 01:29:50
Перевод №1: Авторский (одноголосый закадровый) Андрей Гаврилов
Перевод №2: Авторский (одноголосый закадровый) Алексей Михалев
Cубтитры: английские
Оригинальная аудиодорожка: английский
Режиссер: Фред Скеписи / Fred Schepisi
В ролях: Уилли Нельсон, Гэри Бьюзи, Исела Вега, Гилберт Роланд, Дэнни Де Ла Пас, Альма Мартинес, Джордж (Иржи) Восковец, Майкл О'Рурк, Шарон Комптон, Хауленд Чамберлейн, Гарри Сизар, Вольф Музер, Кай Вулфф, Роберто Контрерас, Луис Контрерас, Джоанелль Ромера, Джейк Бьюзи
Описание: Имя знаменитого разбойника Барбаросы наводит ужас на жителей маленького городка в Южном Техасе. Цель жизни каждого мужчины — найти и убить Барбаросу. Но будет ли счастье в поселке, лишенном легенды?..

Качество видео: BDRemux 1080p
Формат видео: MKV
Видео: AVC / 1920x1080 / 16:9 / 23.976fps / 28795 kbps / High@L4.1
Аудио 1: AC3 / 48.0 KHz / 2ch. / 192kbps / Rus / AVO / Андрей Гаврилов
Аудио 2: AC3 / 48.0 KHz / 2ch. / 192kbps / Rus / AVO / Алексей Михалев
Аудио 3: DTS-HD MA / 48.0 KHz / 2ch / 1880kbps / 24bit (DTS Core 48.0 KHz / 2ch / 1509kbps / 24bit) Eng
Формат субтитров: softsub (SRT)

MediaInfo

Общее
Уникальный идентификатор : 190330916880796857835972354569946542158 (0x8F3066B61D34F0B98B19DDE4BE30304E)
Формат : Matroska
Версия формата : Version 4 / Version 2
Размер файла : 19,5 Гбайт
Продолжительность : 1 ч. 29 м.
Режим общего битрейта : Переменный
Общий поток : 31,1 Мбит/сек
Название фильма : Barbarosa.1982.BDRemux.1080p_by_vedigo
Дата кодирования : UTC 2016-10-25 03:09:20
Программа кодирования : mkvmerge v9.5.0 ('Quiet Fire') 64bit
Библиотека кодирования : libebml v1.3.4 + libmatroska v1.4.5
Видео
Идентификатор : 1
Формат : AVC
Формат/Информация : Advanced Video Codec
Профиль формата : High@L4.1
Параметр CABAC формата : Да
Параметр ReFrames формата : 3 кадра
Параметр GOP формата : M=3, N=12
Идентификатор кодека : V_MPEG4/ISO/AVC
Продолжительность : 1 ч. 29 м.
Вид битрейта : Переменный
Битрейт : 28,8 Мбит/сек
Максимальный битрейт : 34,1 Мбит/сек
Ширина : 1920 пикселей
Высота : 1080 пикселей
Соотношение сторон : 16:9
Режим частоты кадров : Постоянный
Частота кадров : 23,976 (24000/1001) кадра/сек
Стандарт вещания : NTSC
Цветовое пространство : YUV
Субдискретизация насыщенности : 4:2:0
Битовая глубина : 8 бит
Тип развёртки : Прогрессивная
Бит/(Пиксели*Кадры) : 0.579
Размер потока : 18,1 Гбайт (93%)
Заголовок : Barbarosa.1982.BDRemux.1080p_by_vedigo
Default : Да
Forced : Нет
Цветовой диапазон : Limited
Основные цвета : BT.709
Характеристики трансфера : BT.709
Коэффициенты матрицы : BT.709
Аудио #1
Идентификатор : 2
Формат : AC-3
Формат/Информация : Audio Coding 3
Расширение режима : CM (complete main)
Параметр Endianness формата : Big
Идентификатор кодека : A_AC3
Продолжительность : 1 ч. 29 м.
Вид битрейта : Постоянный
Битрейт : 192 Кбит/сек
Каналы : 2 канала
Расположение каналов : Front: L R
Частота : 48,0 КГц
Частота кадров : 31,250 кадров/сек (1536 spf)
Метод сжатия : С потерями
Размер потока : 123 Мбайт (1%)
Заголовок : AVO @ А. Гаврилов
Язык : Russian
Default : Да
Forced : Нет
Аудио #2
Идентификатор : 3
Формат : AC-3
Формат/Информация : Audio Coding 3
Расширение режима : CM (complete main)
Параметр Endianness формата : Big
Идентификатор кодека : A_AC3
Продолжительность : 1 ч. 29 м.
Вид битрейта : Постоянный
Битрейт : 192 Кбит/сек
Каналы : 2 канала
Расположение каналов : Front: L R
Частота : 48,0 КГц
Частота кадров : 31,250 кадров/сек (1536 spf)
Метод сжатия : С потерями
Размер потока : 123 Мбайт (1%)
Заголовок : AVO @ А. Михалев
Язык : Russian
Default : Нет
Forced : Нет
Аудио #3
Идентификатор : 4
Формат : DTS
Формат/Информация : Digital Theater Systems
Профиль формата : MA / Core
Режим : 16
Параметр Endianness формата : Big
Идентификатор кодека : A_DTS
Продолжительность : 1 ч. 29 м.
Вид битрейта : Переменный / Постоянный
Битрейт : 1880 Кбит/сек / 1509 Кбит/сек
Каналы : 2 канала
Расположение каналов : Front: L R
Частота : 48,0 КГц
Частота кадров : 93,750 кадра/сек (512 spf)
Битовая глубина : 24 бит
Метод сжатия : Без потерь / Lossy
Размер потока : 1,18 Гбайт (6%)
Заголовок : Original
Язык : English
Default : Нет
Forced : Нет
Текст
Идентификатор : 5
Формат : UTF-8
Идентификатор кодека : S_TEXT/UTF8
Идентификатор кодека/Информация : UTF-8 Plain Text
Продолжительность : 1 ч. 25 м.
Битрейт : 49 бит/сек
Count of elements : 949
Размер потока : 30,8 Кбайт (0%)
Заголовок : Subtitle eng [DVD] Full
Язык : English
Default : Нет
Forced : Нет
Меню
00:00:00.000 : en:00:00:00.000
00:02:56.760 : en:00:02:56.760
00:09:44.334 : en:00:09:44.334
00:13:37.025 : en:00:13:37.025
00:20:56.005 : en:00:20:56.005
00:25:32.114 : en:00:25:32.114
00:32:02.671 : en:00:32:02.671
00:38:41.569 : en:00:38:41.569
00:42:42.310 : en:00:42:42.310
00:52:34.234 : en:00:52:34.234
01:02:49.349 : en:01:02:49.349
01:10:03.074 : en:01:10:03.074
01:20:31.493 : en:01:20:31.493
01:24:02.246 : en:01:24:02.246
01:27:06.638 : en:01:27:06.638

Скриншоты

[Профиль] [ЛС]
Показать сообщения:    

Текущее время: Сегодня 18:37

Часовой пояс: GMT



Вы не можете начинать темы
Вы не можете отвечать на сообщения
Вы не можете редактировать свои сообщения
Вы не можете удалять свои сообщения
Вы не можете голосовать в опросах
Вы не можете прикреплять файлы к сообщениям
Вы не можете скачивать файлы