Барахольщик / The Hoarder (2015) BDRip 720p | L2

 
Автор Сообщение

BOSS ®

Пол:

Стаж: 2 года 1 месяц

Сообщений: 3735

Откуда: ODESSA



Награды: 20 (Подробнее)

Top Keeper 1 (Количество: 1) Top Keeper 4 (Количество: 1) Mega Seeder 2 (Количество: 1)
Торрент-статистика

Создавать темы 21-Ноя-2015 12:06

[Цитировать]

Информация о фильме
Название: Барахольщик
Оригинальное название: The Hoarder
Год выхода: 2015
Жанр: ужасы, триллер
Режиссер: Мэтт Уинн
В ролях: Миша Бартон, Роберт Неппер, Валин Кэйн, Шарлотта Солт, Эмили Атак, Эндрю Бакли, Эд Купер Кларк, Джэми Бэйкон, Филип Филмар, Джон Секвилл
О фильме: Молодая женщина оказавшись в подземном хранилище, попадает в ловушку, где её преследует убийца.

Выпущено: Великобритания / Atlantic Picture Company, Sunny Day Media, Tall Man Films
Продолжительность: 01:25:56
Озвучивание: Любительское (двухголосое) [RG.paravozik]
Файл
Формат: MKV
Качество: BDRip 720p
Видео: 4302 kb/s, 1280x536
Аудио: Russian: AC3, 192 kb/s (2 ch) / English: DTS, 1510 kb/s (6 ch)

MI

Format : Matroska
Format version : Version 2
File size : 3.68 GiB
Duration : 1h 25mn
Overall bit rate : 6 125 Kbps
Encoded date : UTC 2015-11-21 11:46:37
Writing application : mkvmerge v7.8.0 ('River Man') 32bit built on Apr 3 2015 12:11:22
Writing library : libebml v1.3.1 + libmatroska v1.4.2
Video
ID : 1
Format : AVC
Format/Info : Advanced Video Codec
Format profile : High@L4.1
Format settings, CABAC : Yes
Format settings, ReFrames : 12 frames
Codec ID : V_MPEG4/ISO/AVC
Duration : 1h 25mn
Bit rate : 4 302 Kbps
Width : 1 280 pixels
Height : 536 pixels
Display aspect ratio : 2.40:1
Frame rate mode : Constant
Frame rate : 24.000 fps
Color space : YUV
Chroma subsampling : 4:2:0
Bit depth : 8 bits
Scan type : Progressive
Bits/(Pixel*Frame) : 0.261
Stream size : 2.58 GiB (70%)
Language : English
Default : Yes
Forced : No
Audio #1
ID : 2
Format : AC-3
Format/Info : Audio Coding 3
Mode extension : CM (complete main)
Format settings, Endianness : Big
Codec ID : A_AC3
Duration : 1h 25mn
Bit rate mode : Constant
Bit rate : 192 Kbps
Channel(s) : 2 channels
Channel positions : Front: L R
Sampling rate : 48.0 KHz
Bit depth : 16 bits
Compression mode : Lossy
Stream size : 118 MiB (3%)
Language : Russian
Default : Yes
Forced : No
Audio #2
ID : 3
Format : DTS
Format/Info : Digital Theater Systems
Mode : 16
Format settings, Endianness : Big
Codec ID : A_DTS
Duration : 1h 25mn
Bit rate mode : Constant
Bit rate : 1 509 Kbps
Channel(s) : 6 channels
Channel positions : Front: L C R, Side: L R, LFE
Sampling rate : 48.0 KHz
Bit depth : 24 bits
Compression mode : Lossy
Stream size : 928 MiB (25%)
Language : English
Default : No
Forced : No
Menu
00:00:00.000 : en:00:00:00.000
00:06:20.000 : en:00:06:20.000
00:13:44.250 : en:00:13:44.250
00:21:43.375 : en:00:21:43.375
00:27:33.250 : en:00:27:33.250
00:34:16.625 : en:00:34:16.625
00:41:52.583 : en:00:41:52.583
00:49:00.250 : en:00:49:00.250
00:57:39.750 : en:00:57:39.750
01:03:16.458 : en:01:03:16.458
01:10:27.458 : en:01:10:27.458
01:17:10.625 : en:01:17:10.625

Скриншоты

[Профиль] [ЛС]
Показать сообщения:    

Текущее время: Сегодня 20:34

Часовой пояс: GMT



Вы не можете начинать темы
Вы не можете отвечать на сообщения
Вы не можете редактировать свои сообщения
Вы не можете удалять свои сообщения
Вы не можете голосовать в опросах
Вы не можете прикреплять файлы к сообщениям
Вы не можете скачивать файлы