Баран и роза / Oinas ja roos (Калью Курепыльд) [1982, кукольный, для взрослых, TeleSynch]

 
Автор Сообщение

TorrentFilm ®

Пол:

Стаж: 2 года

Сообщений: 7741



Награды: Нет

Торрент-статистика

Создавать темы 03-Янв-2016 00:05

[Цитировать]

Баран и роза
Страна: СССР
Студия: Таллинфильм
Жанр: кукольный, для взрослых
Продолжительность: 00:07:03
Год выпуска: 1982
Перевод: Не требуется
Русские субтитры: нет
Режиссёр: Калью Курепыльд
Описание: Сатирический кукольный фильм для взрослых состоит из двух сюжетов.
"Пикник"- Рассказывает о весёлой пирушке зверей в ...квартире, которую они оставили в безобразном состоянии, подобно некоторым отдыхающим на природе людям.
"Вкус"- о разном отношении к распустившейся розе. Пёс просыпается от её аромата, петух удивлённо кукарекает, свинья отворачивается, а баран пожирает стебель и листья розы.
(Информация взята из каталога кинофильмов 1983 года)
Доп. информация: Фильм оцифрован с киноплёнки 35-мм, из личной коллекции ENKVANT
Качество: TeleSynch
Формат: MPG
Видео: 720x480 (4:3) @ 640x480, 29.970 fps, MPEG-2 Video, ~6388 Kbps, 0.617 bits/pixel
Аудио: 48.0 KHz, AC3, 1 ch, 192 Kbps
Субтитры: отсутствуют

MediaInfo

GeneralComplete name : Баран и роза (Таллинфильм) 1982.mpgFormat : MPEG-PSFile size : 339 MiBDuration : 7mn 3sOverall bit rate mode : VariableOverall bit rate : 6 714 Kbps
VideoID : 224 (0xE0)Format : MPEG VideoFormat version : Version 2Format profile : Main@MainFormat settings, BVOP : YesFormat settings, Matrix : CustomFormat settings, GOP : VariableDuration : 7mn 3sBit rate mode : VariableBit rate : 6 388 KbpsMaximum bit rate : 9 586 KbpsWidth : 720 pixelsHeight : 480 pixelsDisplay aspect ratio : 4:3Frame rate : 29.970 fpsStandard : NTSCColor space : YUVChroma subsampling : 4:2:0Bit depth : 8 bitsScan type : InterlacedScan order : Bottom Field FirstCompression mode : LossyBits/(Pixel*Frame) : 0.617Time code of first frame : 00:00:00;00Time code source : Group of pictures headerStream size : 323 MiB (95%)
AudioID : 189 (0xBD)-128 (0x80)Format : AC-3Format/Info : Audio Coding 3Mode extension : CM (complete main)Format settings, Endianness : BigMuxing mode : DVD-VideoDuration : 7mn 3sBit rate mode : ConstantBit rate : 192 KbpsChannel(s) : 1 channelChannel positions : Front: CSampling rate : 48.0 KHzBit depth : 16 bitsCompression mode : LossyStream size : 9.70 MiB (3%)

Скриншоты

[Профиль] [ЛС]
Кто просматривает тему:

Форум Тема Автор Размер
Отечественные мультфильмы Баран и роза (К. Курепыльд) [1982, Таллинфильм, кукольный, для взрослых, TeleSynch] painkiller 100 MB
Отечественные мультфильмы Баранкин, будь человеком! (Александра Снежко-Блоцкая) [1963 г., Мультфильм, DVDRip] TorrentFilm 376 MB
Мультфильмы СССР Баранкин, будь человеком! Дядя Миша. Ивашка из Дворца пионеров. Про Сидорова Вову. (1963-1985) DVDRip от New-Team Белочка 739 MB
Мультфильмы СССР Баранкин, будь человеком! Дядя Миша. Ивашка из Дворца пионеров. Про Сидорова Вову. (1963-1985) DVDRip-AVC от New-Team Белочка 744 MB
Фильмы 2015 года Бараны / Rams / Hrutar (2015) DVDRip | L1 достали все 1.17 GB
Фильмы 2014 года День дурака (Александр Баранов) [2014 г., комедия, приключения, DVDRip] BOSS 1.46 GB
Фильмы (HD Rips | 720p, 1080p) Джентльмены, удачи! (Александр Баранов, Дмитрий Киселёв) [2012, Россия, комедия, криминал, BDRip 1080p] TorrentFilm 6.99 GB
Фильмы (HD Rips | 720p, 1080p) Джентльмены, удачи! (Александр Баранов, Дмитрий Киселёв) [2012, Россия, комедия, криминал, Blu-ray Disc 1080p] [RUS] TorrentFilm 22.03 GB
Показать сообщения:    

Текущее время: Сегодня 13:01

Часовой пояс: GMT



Вы не можете начинать темы
Вы не можете отвечать на сообщения
Вы не можете редактировать свои сообщения
Вы не можете удалять свои сообщения
Вы не можете голосовать в опросах
Вы не можете прикреплять файлы к сообщениям
Вы не можете скачивать файлы