Баранкин, будь человеком! (Александра Снежко-Блоцкая) [1963 г., Мультфильм, DVDRip]

 
Автор Сообщение

TorrentFilm ®

Пол:

Стаж: 2 года

Сообщений: 7741



Награды: Нет

Торрент-статистика

Создавать темы 01-Янв-2016 00:19

[Цитировать]

Баранкин, будь человеком!Страна: СССР
Жанр: Мультфильм
Продолжительность: 0:20:16
Год выпуска: 1963
Выпущено: «Союзмультфильм»
Режиссёр: Александра Снежко-Блоцкая
Русские субтитры: нетОписание:По одноимённой повести В. Медведева.
Ленивый и непослушный ученик Баранкин и его друг-одноклассник Костя Малинин позавидовали беззаботному существованию бабочек, муравьёв, воробьёв… И что из этого вышло.

XV Фестиваль фильмов для детей и юношества в Венеции, 1963 г. — Бронзовая медаль.

Цитаты:
— Если по-настощему захотеть, то даже курносый нос может превратиться в орлиный!
— Оболтус! Уроки учить надо, а не из рогаток стрелять!
— Это кто не хочет учиться?
— Я! … А драться — не педагогично!
— Гнездо вьётся так: в рот берётся соломинка и сворачичивается в колечко.
— А, может, мы и не уснём. Мы ведь не простые бабочки, а человекообразные!
— Странно: выходной день, а они работают.
— Инстинкт. Муравьи ему подчиняются.

Режиссёр и команда

Режиссёр: Александра Снежко-Блоцкая
сценарист В. Медведев
художник-постановщик: Ильдар Урманче
Художники: Ирина Светлица, Е. Танненберг
Аниматоры: Татьяна Фёдорова, Владимир Карп, Татьяна Таранович, Е. Вершинина, Константин Чикин, Борис Чани, О. Столбова, Борис Бутаков, Владимир Крумин, Галина Баринова, Елизавета Комова.
кинооператор: Е. Ризо
композитор: Виталий Гевиксман
звукорежиссёр: Борис Фильчиков
редактор З. Павлова
Качество: DVDRip
Формат: AVI
Видео: 720x544 (1.32:1), 25 fps, XviD build 64 ~2391 kbps avg, 0.24 bit/pixel
Аудио: 48 kHz, AC3 Dolby Digital, 2/0 (L,R) ch, ~192 kbps
Субтитры: отсутствуют

Подробные технические данные

ОбщееПолное имя : D:\Мульты\Barankin_(Zolotaya_kollektziya).aviФормат : AVIФормат/Информация : Audio Video InterleaveРазмер файла : 376 МбайтПродолжительность : 20 м.Общий поток : 2593 Кбит/секПрограмма кодирования : VirtualDubMod 1.5.10.2 (build 2540/release)Библиотека кодирования : VirtualDubMod build 2540/release
ВидеоИдентификатор : 0Формат : MPEG-4 VisualПрофиль формата : Advanced Simple@L5Параметр BVOP формата : 2Параметр QPel формата : НетПараметр GMC формата : Без точки переходаПараметр матрицы формата : ВыборочнаяИдентификатор кодека : XVIDИдентификатор кодека/Подсказка : XviDПродолжительность : 20 м.Битрейт : 2392 Кбит/секШирина : 720 пикселейВысота : 544 пикселяСоотношение сторон : 4:3Частота кадров : 25,000 кадров/секЦветовое пространство : YUVСубдискретизация насыщенности : 4:2:0Битовая глубина : 8 битТип развёртки : ПрогрессивнаяМетод сжатия : С потерямиБит/(Пиксели*Кадры) : 0.244Размер потока : 347 Мбайт (92%)Библиотека кодирования : XviD 64
АудиоИдентификатор : 1Формат : AC-3Формат/Информация : Audio Coding 3Расширение режима : CM (complete main)Идентификатор кодека : 2000Продолжительность : 20 м.Вид битрейта : ПостоянныйБитрейт : 192 Кбит/секКаналы : 2 каналаРасположение каналов : Front: L RЧастота : 48,0 КГцБитовая глубина : 16 битМетод сжатия : С потерямиРазмер потока : 27,8 Мбайт (7%)Выравнивание : Разделение по промежуткамПродолжительность промежутка : 40 мс. (1,00 видеокадр)Время предзагрузки промежутка : 500 мс.
Subtitles: Not Present

Скриншоты

-Сравнение с другой раздачей:
"Баранкин, будь человеком!" (funduk, 720x576, ~1683 kbps) http://screenshotcomparison.com/comparison/47697-Сравнение с альтернативной раздачей:
"Баранкин, будь человеком!" (720x544, ~2400 kbps) http://screenshotcomparison.com/comparison/47699- Все раздачи
[Профиль] [ЛС]
Кто просматривает тему:

Форум Тема Автор Размер
Отечественные мультфильмы Баран и роза (К. Курепыльд) [1982, Таллинфильм, кукольный, для взрослых, TeleSynch] painkiller 100 MB
Отечественные мультфильмы Баран и роза / Oinas ja roos (Калью Курепыльд) [1982, кукольный, для взрослых, TeleSynch] TorrentFilm 339 MB
Мультфильмы СССР Баранкин, будь человеком! Дядя Миша. Ивашка из Дворца пионеров. Про Сидорова Вову. (1963-1985) DVDRip от New-Team Белочка 739 MB
Мультфильмы СССР Баранкин, будь человеком! Дядя Миша. Ивашка из Дворца пионеров. Про Сидорова Вову. (1963-1985) DVDRip-AVC от New-Team Белочка 744 MB
Фильмы 2015 года Бараны / Rams / Hrutar (2015) DVDRip | L1 достали все 1.17 GB
Фильмы 2014 года День дурака (Александр Баранов) [2014 г., комедия, приключения, DVDRip] BOSS 1.46 GB
Фильмы (HD Rips | 720p, 1080p) Джентльмены, удачи! (Александр Баранов, Дмитрий Киселёв) [2012, Россия, комедия, криминал, BDRip 1080p] TorrentFilm 6.99 GB
Фильмы (HD Rips | 720p, 1080p) Джентльмены, удачи! (Александр Баранов, Дмитрий Киселёв) [2012, Россия, комедия, криминал, Blu-ray Disc 1080p] [RUS] TorrentFilm 22.03 GB
Показать сообщения:    

Текущее время: Сегодня 13:45

Часовой пояс: GMT



Вы не можете начинать темы
Вы не можете отвечать на сообщения
Вы не можете редактировать свои сообщения
Вы не можете удалять свои сообщения
Вы не можете голосовать в опросах
Вы не можете прикреплять файлы к сообщениям
Вы не можете скачивать файлы